<?xml version="1.0" standalone="no"?>
<!DOCTYPE svg PUBLIC "-//W3C//DTD SVG 1.1//EN" "http://www.w3.org/Graphics/SVG/1.1/DTD/svg11.dtd" >
<svg xmlns="http://www.w3.org/2000/svg" xmlns:xlink="http://www.w3.org/1999/xlink" version="1.1">
<metadata>
Created by FontForge 20161003 at Mon May 13 07:52:50 2019
 By www-data
Copyright (c) 2008 - 2011 Linotype GmbH, www.linotype.com. All rights reserved. This font software may not be reproduced, modified, disclosed or transferred without the express written approval of Linotype GmbH.
</metadata>
<defs>
<font id="DINNextLTArabicBold" horiz-adv-x="556" >
  <font-face 
    font-family="DINNextLTArabicBold"
    font-weight="700"
    font-stretch="normal"
    units-per-em="1000"
    panose-1="2 11 8 3 2 2 3 5 2 3"
    ascent="750"
    descent="-250"
    x-height="484"
    cap-height="680"
    bbox="-189.692 -455 1391 1389"
    underline-thickness="50"
    underline-position="-150"
    unicode-range="U+000D-FEFC"
  />
<missing-glyph horiz-adv-x="506" 
d="M0 670q0 10 10 10h486q10 0 10 -10v-660q0 -10 -10 -10h-486q-10 0 -10 10v660zM69 71q0 -6 6 -6h356q6 0 6 6v538q0 6 -6 6h-356q-6 0 -6 -6v-538zM209 243q-10 0 -10 10v24q0 19 5 30.5t14 23.5l46 60q12 16 17.5 27t5.5 25q0 18 -11 30t-30 12q-21 0 -32 -11t-16 -28
q-2 -11 -11 -9l-65 10q-10 0 -8 11q9 48 43.5 76.5t92.5 28.5q28 0 51.5 -9t40.5 -25t26 -37.5t9 -45.5q0 -46 -32 -82l-45 -60q-6 -8 -9.5 -16.5t-3.5 -21.5v-13q0 -10 -10 -10h-68zM198 191q0 10 10 10h71q10 0 10 -10v-67q0 -10 -10 -10h-71q-10 0 -10 10v67z" />
    <glyph glyph-name="aLam.init_aAlifMadda.fina" unicode="&#xfedf;&#xfe82;" horiz-adv-x="682" arabic-form="isolated" 
d="M80 636q10 40 32.5 60t54.5 20q23 0 47 -8.5t48 -18.5t46.5 -18.5t43.5 -8.5q15 0 20.5 7.5t5.5 26.5q0 10 10 10h53q10 0 10 -10q0 -48 -20 -76.5t-65 -28.5q-28 0 -54 8t-48.5 17l-42.5 17t-36 8q-10 0 -18.5 -5.5t-14.5 -22.5q-3 -10 -13 -7l-52 17q-10 3 -7 13z
M341 121h91q25 0 36.5 11.5t11.5 41.5v496q0 10 10 10h122q10 0 10 -10v-544q0 -65 -27 -95.5t-90 -30.5h-465q-10 0 -10 10v101q0 10 10 10h159v408q0 10 10 10h122q10 0 10 -10v-408z" />
    <glyph glyph-name="aLam.medi_aAlifMadda.fina" unicode="&#xfee0;&#xfe82;" horiz-adv-x="720" arabic-form="final" 
d="M80 636q10 40 32.5 60t54.5 20q23 0 47 -8.5t48 -18.5t46.5 -18.5t43.5 -8.5q15 0 20.5 7.5t5.5 26.5q0 10 10 10h53q10 0 10 -10q0 -48 -20 -76.5t-65 -28.5q-28 0 -54 8t-48.5 17l-42.5 17t-36 8q-10 0 -18.5 -5.5t-14.5 -22.5q-3 -10 -13 -7l-52 17q-10 3 -7 13z
M622 169q4 -23 23 -35.5t52 -12.5h23q20 0 30 -14t10 -46q0 -61 -40 -61q-37 0 -65 9t-48 41q-15 -31 -44.5 -40.5t-81.5 -9.5h-441q-10 0 -10 10v101q0 10 10 10h159v408q0 10 10 10h122q10 0 10 -10v-408h91q25 0 36.5 11.5t11.5 41.5v496q0 10 10 10h122q10 0 10 -10
v-501z" />
    <glyph glyph-name="aLam.init_aAlifHamza.fina" unicode="&#xfedf;&#xfe84;" horiz-adv-x="682" arabic-form="isolated" 
d="M192 663q-6 11 -10 24t-4 29q0 18 6.5 36t19.5 32.5t33.5 23t49.5 8.5q32 0 55.5 -11.5t36.5 -28.5q3 -5 -1 -9l-30 -31q-5 -6 -10 -1q-21 23 -47 23q-19 0 -31 -12t-12 -32q0 -18 9.5 -31t20.5 -20h100q6 0 6 -7v-45q0 -7 -6 -7h-223q-6 0 -6 7v45q0 7 6 7h37zM341 121
h91q25 0 36.5 11.5t11.5 41.5v496q0 10 10 10h122q10 0 10 -10v-544q0 -65 -27 -95.5t-90 -30.5h-465q-10 0 -10 10v101q0 10 10 10h159v408q0 10 10 10h122q10 0 10 -10v-408z" />
    <glyph glyph-name="aLam.medi_aAlifHamza.fina" unicode="&#xfee0;&#xfe84;" horiz-adv-x="720" arabic-form="final" 
d="M192 663q-6 11 -10 24t-4 29q0 18 6.5 36t19.5 32.5t33.5 23t49.5 8.5q32 0 55.5 -11.5t36.5 -28.5q3 -5 -1 -9l-30 -31q-5 -6 -10 -1q-21 23 -47 23q-19 0 -31 -12t-12 -32q0 -18 9.5 -31t20.5 -20h100q6 0 6 -7v-45q0 -7 -6 -7h-223q-6 0 -6 7v45q0 7 6 7h37zM622 169
q4 -23 23 -35.5t52 -12.5h23q20 0 30 -14t10 -46q0 -61 -40 -61q-37 0 -65 9t-48 41q-15 -31 -44.5 -40.5t-81.5 -9.5h-441q-10 0 -10 10v101q0 10 10 10h159v408q0 10 10 10h122q10 0 10 -10v-408h91q25 0 36.5 11.5t11.5 41.5v496q0 10 10 10h122q10 0 10 -10v-501z" />
    <glyph glyph-name="aLam.init_aAlifHamzabelow.fina" unicode="&#xfedf;&#xfe88;" horiz-adv-x="682" arabic-form="isolated" 
d="M193 -223q-6 11 -10 24t-4 29q0 18 6.5 36t19.5 32.5t33.5 23t49.5 8.5q32 0 55.5 -11.5t36.5 -28.5q3 -5 -1 -9l-30 -31q-5 -6 -10 -1q-21 23 -47 23q-19 0 -31 -12t-12 -32q0 -18 9.5 -31t20.5 -20h100q6 0 6 -7v-45q0 -7 -6 -7h-223q-6 0 -6 7v45q0 7 6 7h37zM341 121
h91q25 0 36.5 11.5t11.5 41.5v496q0 10 10 10h122q10 0 10 -10v-544q0 -65 -27 -95.5t-90 -30.5h-465q-10 0 -10 10v101q0 10 10 10h159v408q0 10 10 10h122q10 0 10 -10v-408z" />
    <glyph glyph-name="aLam.medi_aAlifHamzabelow.fina" unicode="&#xfee0;&#xfe88;" horiz-adv-x="720" arabic-form="final" 
d="M193 -223q-6 11 -10 24t-4 29q0 18 6.5 36t19.5 32.5t33.5 23t49.5 8.5q32 0 55.5 -11.5t36.5 -28.5q3 -5 -1 -9l-30 -31q-5 -6 -10 -1q-21 23 -47 23q-19 0 -31 -12t-12 -32q0 -18 9.5 -31t20.5 -20h100q6 0 6 -7v-45q0 -7 -6 -7h-223q-6 0 -6 7v45q0 7 6 7h37zM622 169
q4 -23 23 -35.5t52 -12.5h23q20 0 30 -14t10 -46q0 -61 -40 -61q-37 0 -65 9t-48 41q-15 -31 -44.5 -40.5t-81.5 -9.5h-441q-10 0 -10 10v101q0 10 10 10h159v408q0 10 10 10h122q10 0 10 -10v-408h91q25 0 36.5 11.5t11.5 41.5v496q0 10 10 10h122q10 0 10 -10v-501z" />
    <glyph glyph-name="aLam.init_aAlif.fina" unicode="&#xfedf;&#xfe8e;" horiz-adv-x="682" arabic-form="isolated" 
d="M341 121h91q25 0 36.5 11.5t11.5 41.5v496q0 10 10 10h122q10 0 10 -10v-544q0 -65 -27 -95.5t-90 -30.5h-465q-10 0 -10 10v101q0 10 10 10h159v408q0 10 10 10h122q10 0 10 -10v-408z" />
    <glyph glyph-name="aLam.medi_aAlif.fina" unicode="&#xfee0;&#xfe8e;" horiz-adv-x="720" arabic-form="final" 
d="M622 169q4 -23 23 -35.5t52 -12.5h23q20 0 30 -14t10 -46q0 -61 -40 -61q-37 0 -65 9t-48 41q-15 -31 -44.5 -40.5t-81.5 -9.5h-441q-10 0 -10 10v101q0 10 10 10h159v408q0 10 10 10h122q10 0 10 -10v-408h91q25 0 36.5 11.5t11.5 41.5v496q0 10 10 10h122q10 0 10 -10
v-501z" />
    <glyph glyph-name="aLam.init_aAlifWasla.fina" unicode="&#xfedf;&#xfb51;" horiz-adv-x="682" 
d="M174 648q7 0 8.5 4.5t1.5 13.5v82q0 7 8 7h43q8 0 8 -7v-8q31 14 67 14q45 0 62.5 -23.5t17.5 -59.5q0 -44 -15 -58t-47 -14h-166q-7 0 -7 7v35q0 7 7 7h12zM297 705q-13 0 -27 -4.5t-27 -9.5v-43h67q14 0 17.5 6t3.5 20q0 31 -34 31zM341 121h91q25 0 36.5 11.5
t11.5 41.5v496q0 10 10 10h122q10 0 10 -10v-544q0 -65 -27 -95.5t-90 -30.5h-465q-10 0 -10 10v101q0 10 10 10h159v408q0 10 10 10h122q10 0 10 -10v-408z" />
    <glyph glyph-name="aLam.medi_aAlifWasla.fina" unicode="&#xfee0;&#xfb51;" horiz-adv-x="720" 
d="M174 648q7 0 8.5 4.5t1.5 13.5v82q0 7 8 7h43q8 0 8 -7v-8q31 14 67 14q45 0 62.5 -23.5t17.5 -59.5q0 -44 -15 -58t-47 -14h-166q-7 0 -7 7v35q0 7 7 7h12zM297 705q-13 0 -27 -4.5t-27 -9.5v-43h67q14 0 17.5 6t3.5 20q0 31 -34 31zM622 169q4 -23 23 -35.5t52 -12.5
h23q20 0 30 -14t10 -46q0 -61 -40 -61q-37 0 -65 9t-48 41q-15 -31 -44.5 -40.5t-81.5 -9.5h-441q-10 0 -10 10v101q0 10 10 10h159v408q0 10 10 10h122q10 0 10 -10v-408h91q25 0 36.5 11.5t11.5 41.5v496q0 10 10 10h122q10 0 10 -10v-501z" />
    <glyph glyph-name="aHamza" unicode="&#x621;" horiz-adv-x="425" arabic-form="isolated" 
d="M84 99q-9 16 -14.5 36t-5.5 43q0 32 10.5 61.5t32.5 52.5t55.5 37t78.5 14q49 0 88 -19t59 -47q6 -9 0 -15l-50 -53q-5 -5 -8.5 -4.5t-7.5 3.5q-17 17 -34.5 26.5t-40.5 9.5q-29 0 -47.5 -18.5t-18.5 -50.5q0 -26 11.5 -45.5t25.5 -30.5h170q10 0 10 -11v-77
q0 -11 -10 -11h-359q-10 0 -10 11v77q0 11 10 11h55z" />
    <glyph glyph-name="aAlifMadda" unicode="&#x622;" horiz-adv-x="261" arabic-form="isolated" 
d="M201 10q0 -10 -10 -10h-121q-10 0 -10 10v660q0 10 10 10h121q10 0 10 -10v-660zM-62 768q10 40 32.5 60t54.5 20q23 0 47 -8.5t48 -18.5t46.5 -18.5t43.5 -8.5q15 0 20.5 7.5t5.5 26.5q0 10 10 10h53q10 0 10 -10q0 -48 -20 -76.5t-65 -28.5q-28 0 -54 8t-48.5 17
l-42.5 17t-36 8q-10 0 -18.5 -5.5t-14.5 -22.5q-3 -10 -13 -7l-52 17q-10 3 -7 13z" />
    <glyph glyph-name="aAlifHamza" unicode="&#x623;" horiz-adv-x="261" arabic-form="isolated" 
d="M201 10q0 -10 -10 -10h-121q-10 0 -10 10v660q0 10 10 10h121q10 0 10 -10v-660zM53 789q-6 11 -10 24t-4 29q0 18 6.5 36t19.5 32.5t33.5 23t49.5 8.5q32 0 55.5 -11.5t36.5 -28.5q3 -5 -1 -9l-30 -31q-5 -6 -10 -1q-21 23 -47 23q-19 0 -31 -12t-12 -32q0 -18 9.5 -31
t20.5 -20h100q6 0 6 -7v-45q0 -7 -6 -7h-223q-6 0 -6 7v45q0 7 6 7h37z" />
    <glyph glyph-name="aWawHamza" unicode="&#x624;" horiz-adv-x="539" arabic-form="isolated" 
d="M146 -205q-10 0 -10 10v101q0 10 10 10h115q20 0 36 2.5t27.5 11.5t18 25.5t6.5 44.5h-42q-60 0 -107.5 7t-81 29.5t-51 63t-17.5 108.5q0 64 18.5 108t49 71t70 39t81.5 12q44 0 84 -11t70 -36.5t47.5 -69t17.5 -107.5v-233q0 -94 -47.5 -140t-148.5 -46h-146zM270 317
q-41 0 -62 -28t-21 -76q0 -55 23.5 -73.5t61.5 -18.5h77v97q0 99 -79 99zM184 580q-6 10 -10 22t-4 28q0 18 6.5 35.5t20 31.5t35 22.5t51.5 8.5q32 0 57.5 -12t37.5 -29q4 -5 -1 -10l-32 -34q-4 -4 -9 2q-11 10 -22.5 16t-27.5 6q-20 0 -31.5 -11t-11.5 -30q0 -18 9 -29
t20 -17h105q6 0 6 -7v-47q0 -7 -6 -7h-228q-6 0 -6 7v47q0 7 6 7h35z" />
    <glyph glyph-name="aAlifHamzabelow" unicode="&#x625;" horiz-adv-x="261" arabic-form="isolated" 
d="M201 10q0 -10 -10 -10h-121q-10 0 -10 10v660q0 10 10 10h121q10 0 10 -10v-660zM50 -223q-6 11 -10 24t-4 29q0 18 6.5 36t19.5 32.5t33.5 23t49.5 8.5q32 0 55.5 -11.5t36.5 -28.5q3 -5 -1 -9l-30 -31q-5 -6 -10 -1q-21 23 -47 23q-19 0 -31 -12t-12 -32q0 -18 9.5 -31
t20.5 -20h100q6 0 6 -7v-45q0 -7 -6 -7h-223q-6 0 -6 7v45q0 7 6 7h37z" />
    <glyph glyph-name="aYehHamza" unicode="&#x626;" horiz-adv-x="809" arabic-form="isolated" 
d="M99 403q-6 10 -10 22t-4 28q0 18 6.5 35.5t20 31.5t35 22.5t51.5 8.5q32 0 57.5 -12t37.5 -29q4 -5 -1 -10l-32 -34q-4 -4 -9 2q-11 10 -22.5 16t-27.5 6q-20 0 -31.5 -11t-11.5 -30q0 -18 9 -29t20 -17h105q6 0 6 -7v-47q0 -7 -6 -7h-228q-6 0 -6 7v47q0 7 6 7h35z
M33 26q0 50 14 100.5t40 95.5q4 6 15 3l108 -35q5 -2 5.5 -5.5t-1.5 -7.5q-14 -28 -26 -63t-12 -79q0 -35 13.5 -58t34.5 -36t47.5 -18t52.5 -5h176q55 0 75.5 14t20.5 33q0 15 -16 29.5t-40.5 30t-53 34.5t-53 43t-40.5 55t-16 71q0 42 16.5 76t45 58t67.5 37t84 13
q67 0 113 -20.5t75 -55.5q3 -4 2 -6.5t-5 -7.5l-66 -70q-6 -5 -14 1q-20 19 -42.5 28.5t-50.5 9.5q-31 0 -54.5 -16t-23.5 -48q0 -23 16.5 -42.5t42 -38t54.5 -37.5t54.5 -42t42 -50.5t16.5 -63.5q0 -70 -51 -114t-159 -44h-234q-142 0 -207.5 61.5t-65.5 169.5z" />
    <glyph glyph-name="aAlif" unicode="&#x627;" horiz-adv-x="261" arabic-form="isolated" 
d="M201 10q0 -10 -10 -10h-121q-10 0 -10 10v660q0 10 10 10h121q10 0 10 -10v-660z" />
    <glyph glyph-name="aBeh" unicode="&#x628;" horiz-adv-x="856" arabic-form="isolated" 
d="M615 121q26 0 37.5 11.5t11.5 41.5v237q0 10 10 10h122q10 0 10 -10v-285q0 -65 -27 -95.5t-92 -30.5h-519q-63 0 -90 30.5t-27 95.5v221q0 10 10 10h122q10 0 10 -10v-173q0 -30 11.5 -41.5t36.5 -11.5h374v0zM366 -205q-10 0 -10 10v98q0 10 10 10h124q10 0 10 -10v-98
q0 -10 -10 -10h-124z" />
    <glyph glyph-name="aTehMarbuta" unicode="&#x629;" horiz-adv-x="532" arabic-form="isolated" 
d="M263 -7q-47 0 -87.5 11t-70 36.5t-46.5 67.5t-17 103q0 66 18 109.5t48.5 69.5t70.5 37t84 11t84 -11t70.5 -37t48.5 -69.5t18 -109.5q0 -61 -17 -103t-46.5 -67.5t-70 -36.5t-87.5 -11zM263 317q-82 0 -82 -101q0 -57 21 -79.5t61 -22.5q42 0 62 22.5t20 79.5
q0 101 -82 101zM136 522q-10 0 -10 10v98q0 10 10 10h100q10 0 10 -10v-98q0 -10 -10 -10h-100zM290 522q-10 0 -10 10v98q0 10 10 10h101q10 0 10 -10v-98q0 -10 -10 -10h-101z" />
    <glyph glyph-name="aTeh" unicode="&#x62a;" horiz-adv-x="856" arabic-form="isolated" 
d="M615 121q26 0 37.5 11.5t11.5 41.5v237q0 10 10 10h122q10 0 10 -10v-285q0 -65 -27 -95.5t-92 -30.5h-519q-63 0 -90 30.5t-27 95.5v221q0 10 10 10h122q10 0 10 -10v-173q0 -30 11.5 -41.5t36.5 -11.5h374v0zM300 463q-10 0 -10 10v98q0 10 10 10h100q10 0 10 -10v-98
q0 -10 -10 -10h-100zM454 463q-10 0 -10 10v98q0 10 10 10h101q10 0 10 -10v-98q0 -10 -10 -10h-101z" />
    <glyph glyph-name="aTheh" unicode="&#x62b;" horiz-adv-x="856" arabic-form="isolated" 
d="M615 121q26 0 37.5 11.5t11.5 41.5v237q0 10 10 10h122q10 0 10 -10v-285q0 -65 -27 -95.5t-92 -30.5h-519q-63 0 -90 30.5t-27 95.5v221q0 10 10 10h122q10 0 10 -10v-173q0 -30 11.5 -41.5t36.5 -11.5h374v0zM303 463q-10 0 -10 10v98q0 10 10 10h100q10 0 10 -10v-98
q0 -10 -10 -10h-100zM457 463q-10 0 -10 10v98q0 10 10 10h101q10 0 10 -10v-98q0 -10 -10 -10h-101zM381 606q-10 0 -10 10v98q0 10 10 10h100q10 0 10 -10v-98q0 -10 -10 -10h-100z" />
    <glyph glyph-name="aJim" unicode="&#x62c;" horiz-adv-x="585" arabic-form="isolated" 
d="M217 0q-26 0 -37.5 -11t-11.5 -31q0 -23 13 -32.5t51 -9.5h55q10 0 10 -10v-101q0 -10 -10 -10h-72q-46 0 -81.5 8t-59.5 27.5t-36.5 51t-12.5 78.5t13.5 78t36.5 49.5t53.5 26t63.5 7.5h120q24 0 39.5 3.5t24 12t12 23t3.5 36.5q0 25 -5 47t-17 38.5t-32 26t-50 9.5
q-31 0 -55 -12.5t-46 -31.5q-8 -6 -14 -1l-60 71q-3 4 -4.5 8t2.5 7q35 35 79.5 57.5t107.5 22.5q66 0 111.5 -19t74 -52.5t41.5 -79t13 -98.5q0 -58 -11.5 -94.5t-33 -57.5t-53 -29t-71.5 -8h-151zM340 -202q-10 0 -10 10v98q0 10 10 10h109q10 0 10 -10v-98q0 -10 -10 -10
h-109z" />
    <glyph glyph-name="aHah" unicode="&#x62d;" horiz-adv-x="585" arabic-form="isolated" 
d="M217 0q-26 0 -37.5 -11t-11.5 -31q0 -23 13 -32.5t51 -9.5h88q10 0 10 -10v-101q0 -10 -10 -10h-105q-46 0 -81.5 8t-59.5 27.5t-36.5 51t-12.5 78.5t13.5 78t36.5 49.5t53.5 26t63.5 7.5h120q24 0 39.5 3.5t24 12t12 23t3.5 36.5q0 25 -5 47t-17 38.5t-32 26t-50 9.5
q-31 0 -55 -12.5t-46 -31.5q-8 -6 -14 -1l-60 71q-3 4 -4.5 8t2.5 7q35 35 79.5 57.5t107.5 22.5q66 0 111.5 -19t74 -52.5t41.5 -79t13 -98.5q0 -58 -11.5 -94.5t-33 -57.5t-53 -29t-71.5 -8h-151z" />
    <glyph glyph-name="aKhah" unicode="&#x62e;" horiz-adv-x="585" arabic-form="isolated" 
d="M217 0q-26 0 -37.5 -11t-11.5 -31q0 -23 13 -32.5t51 -9.5h88q10 0 10 -10v-101q0 -10 -10 -10h-105q-46 0 -81.5 8t-59.5 27.5t-36.5 51t-12.5 78.5t13.5 78t36.5 49.5t53.5 26t63.5 7.5h120q24 0 39.5 3.5t24 12t12 23t3.5 36.5q0 25 -5 47t-17 38.5t-32 26t-50 9.5
q-31 0 -55 -12.5t-46 -31.5q-8 -6 -14 -1l-60 71q-3 4 -4.5 8t2.5 7q35 35 79.5 57.5t107.5 22.5q66 0 111.5 -19t74 -52.5t41.5 -79t13 -98.5q0 -58 -11.5 -94.5t-33 -57.5t-53 -29t-71.5 -8h-151zM244 522q-10 0 -10 10v98q0 10 10 10h124q10 0 10 -10v-98q0 -10 -10 -10
h-124z" />
    <glyph glyph-name="aDal" unicode="&#x62f;" horiz-adv-x="496" arabic-form="isolated" 
d="M446 171q0 -49 -9.5 -82t-28 -52.5t-47 -28t-66.5 -8.5h-242q-10 0 -10 10v101q0 10 10 10h172q25 0 40 3.5t22.5 11.5t10 21t2.5 32v54q0 39 -22.5 56.5t-67.5 17.5h-115q-10 0 -10 10v101q0 10 10 10h174q85 0 131 -43.5t46 -136.5v-87z" />
    <glyph glyph-name="aDhal" unicode="&#x630;" horiz-adv-x="496" arabic-form="isolated" 
d="M446 171q0 -49 -9.5 -82t-28 -52.5t-47 -28t-66.5 -8.5h-242q-10 0 -10 10v101q0 10 10 10h172q25 0 40 3.5t22.5 11.5t10 21t2.5 32v54q0 39 -22.5 56.5t-67.5 17.5h-115q-10 0 -10 10v101q0 10 10 10h174q85 0 131 -43.5t46 -136.5v-87zM157 522q-10 0 -10 10v98
q0 10 10 10h124q10 0 10 -10v-98q0 -10 -10 -10h-124z" />
    <glyph glyph-name="aReh" unicode="&#x631;" horiz-adv-x="309" arabic-form="isolated" 
d="M12 -205q-10 0 -10 10v101q0 10 10 10h22q41 0 58.5 21t17.5 64v410q0 10 10 10h122q10 0 10 -10v-415q0 -103 -48 -152t-146 -49h-46z" />
    <glyph glyph-name="aZeh" unicode="&#x632;" horiz-adv-x="309" arabic-form="isolated" 
d="M12 -205q-10 0 -10 10v101q0 10 10 10h22q41 0 58.5 21t17.5 64v410q0 10 10 10h122q10 0 10 -10v-415q0 -103 -48 -152t-146 -49h-46zM119 522q-10 0 -10 10v98q0 10 10 10h124q10 0 10 -10v-98q0 -10 -10 -10h-124z" />
    <glyph glyph-name="aSin" unicode="&#x633;" horiz-adv-x="1120" arabic-form="isolated" 
d="M542 175q0 -32 20 -43t44 -11q19 0 30.5 4t16.5 12t6.5 21.5t1.5 33.5v147q0 10 10 10h122q10 0 10 -10v-163q0 -34 20.5 -44.5t46.5 -10.5q19 0 29 4t15 12.5t6 22t1 33.5v218q0 10 10 10h122q10 0 10 -10v-285q0 -65 -27 -95.5t-90 -30.5h-55q-39 0 -63.5 14.5
t-37.5 38.5q-14 -31 -42.5 -42t-77.5 -11h-39q-32 0 -54 9t-36 26v-13q0 -63 -19.5 -107.5t-53.5 -73t-80.5 -42t-99.5 -13.5q-52 0 -98.5 13.5t-81.5 42t-55.5 74t-20.5 108.5q0 50 14.5 103t40.5 95q4 6 15 3l108 -35q5 -2 5.5 -5.5t-1.5 -7.5q-14 -28 -26 -63t-12 -79
q0 -35 10 -59t26.5 -39t37 -21.5t41.5 -6.5q51 0 80 28.5t29 90.5v311q0 10 10 10h122q10 0 10 -10v-164z" />
    <glyph glyph-name="aShin" unicode="&#x634;" horiz-adv-x="1120" arabic-form="isolated" 
d="M542 175q0 -32 20 -43t44 -11q19 0 30.5 4t16.5 12t6.5 21.5t1.5 33.5v147q0 10 10 10h122q10 0 10 -10v-163q0 -34 20.5 -44.5t46.5 -10.5q19 0 29 4t15 12.5t6 22t1 33.5v218q0 10 10 10h122q10 0 10 -10v-285q0 -65 -27 -95.5t-90 -30.5h-55q-39 0 -63.5 14.5
t-37.5 38.5q-14 -31 -42.5 -42t-77.5 -11h-39q-32 0 -54 9t-36 26v-13q0 -63 -19.5 -107.5t-53.5 -73t-80.5 -42t-99.5 -13.5q-52 0 -98.5 13.5t-81.5 42t-55.5 74t-20.5 108.5q0 50 14.5 103t40.5 95q4 6 15 3l108 -35q5 -2 5.5 -5.5t-1.5 -7.5q-14 -28 -26 -63t-12 -79
q0 -35 10 -59t26.5 -39t37 -21.5t41.5 -6.5q51 0 80 28.5t29 90.5v311q0 10 10 10h122q10 0 10 -10v-164zM602 522q-10 0 -10 10v98q0 10 10 10h100q10 0 10 -10v-98q0 -10 -10 -10h-100zM756 522q-10 0 -10 10v98q0 10 10 10h101q10 0 10 -10v-98q0 -10 -10 -10h-101z
M680 665q-10 0 -10 10v98q0 10 10 10h100q10 0 10 -10v-98q0 -10 -10 -10h-100z" />
    <glyph glyph-name="aSad" unicode="&#x635;" horiz-adv-x="1050" arabic-form="isolated" 
d="M87 222q4 6 15 3l108 -35q5 -2 5.5 -5.5t-1.5 -7.5q-14 -28 -26 -63t-12 -79q0 -35 10 -59t26.5 -39t37 -21.5t41.5 -6.5q51 0 80 29t29 90v392q0 10 10 10h121q10 0 10 -10v-31q46 21 100 35t113 14q122 0 185.5 -58t63.5 -182q0 -61 -11 -99.5t-36 -60.5t-65.5 -30
t-98.5 -8h-172q-21 0 -41 1t-39 3q-3 -58 -23.5 -99.5t-54 -67.5t-78.5 -38.5t-96 -12.5q-52 0 -98.5 13.5t-81.5 42t-55.5 74t-20.5 108.5q0 50 14.5 103t40.5 95zM728 317q-51 0 -99.5 -14t-87.5 -31v-151h197q37 0 60 2t36 10.5t17.5 25t4.5 46.5q0 27 -6 48t-20.5 35.5
t-39 21.5t-62.5 7z" />
    <glyph glyph-name="aDad" unicode="&#x636;" horiz-adv-x="1050" arabic-form="isolated" 
d="M87 222q4 6 15 3l108 -35q5 -2 5.5 -5.5t-1.5 -7.5q-14 -28 -26 -63t-12 -79q0 -35 10 -59t26.5 -39t37 -21.5t41.5 -6.5q51 0 80 29t29 90v392q0 10 10 10h121q10 0 10 -10v-31q46 21 100 35t113 14q122 0 185.5 -58t63.5 -182q0 -61 -11 -99.5t-36 -60.5t-65.5 -30
t-98.5 -8h-172q-21 0 -41 1t-39 3q-3 -58 -23.5 -99.5t-54 -67.5t-78.5 -38.5t-96 -12.5q-52 0 -98.5 13.5t-81.5 42t-55.5 74t-20.5 108.5q0 50 14.5 103t40.5 95zM728 317q-51 0 -99.5 -14t-87.5 -31v-151h197q37 0 60 2t36 10.5t17.5 25t4.5 46.5q0 27 -6 48t-20.5 35.5
t-39 21.5t-62.5 7zM671 522q-10 0 -10 10v98q0 10 10 10h124q10 0 10 -10v-98q0 -10 -10 -10h-124z" />
    <glyph glyph-name="aTah" unicode="&#x637;" horiz-adv-x="758" arabic-form="isolated" 
d="M67 121q14 0 22.5 7.5t12.5 20.5t5 31t1 39v451q0 10 10 10h121q10 0 10 -10v-281q46 20 100 34.5t113 14.5q122 0 185 -58t63 -182q0 -60 -11 -98t-35 -60.5t-63 -31t-95 -8.5h-240q-41 0 -56 21q-19 -13 -49 -17t-67 -4h-66q-10 0 -10 10v101q0 10 10 10h39zM435 317
q-50 0 -98.5 -14t-87.5 -31v-112q0 -11 -0.5 -20.5t-1.5 -18.5h198q37 0 60.5 2t36.5 10t17.5 25t4.5 47q0 27 -6 48t-20.5 35.5t-39.5 21.5t-63 7z" />
    <glyph glyph-name="aZah" unicode="&#x638;" horiz-adv-x="758" arabic-form="isolated" 
d="M67 121q14 0 22.5 7.5t12.5 20.5t5 31t1 39v451q0 10 10 10h121q10 0 10 -10v-281q46 20 100 34.5t113 14.5q122 0 185 -58t63 -182q0 -60 -11 -98t-35 -60.5t-63 -31t-95 -8.5h-240q-41 0 -56 21q-19 -13 -49 -17t-67 -4h-66q-10 0 -10 10v101q0 10 10 10h39zM435 317
q-50 0 -98.5 -14t-87.5 -31v-112q0 -11 -0.5 -20.5t-1.5 -18.5h198q37 0 60.5 2t36.5 10t17.5 25t4.5 47q0 27 -6 48t-20.5 35.5t-39.5 21.5t-63 7zM405 522q-10 0 -10 10v98q0 10 10 10h124q10 0 10 -10v-98q0 -10 -10 -10h-124z" />
    <glyph glyph-name="aAyn" unicode="&#x639;" horiz-adv-x="555" arabic-form="isolated" 
d="M28 -46q0 67 28.5 103.5t70.5 50.5q-19 23 -31.5 54t-12.5 73q0 40 13 76.5t40 64.5t69 45t99 17q72 0 121 -23t74 -53q6 -7 -2 -15l-63 -75q-8 -7 -15 0q-44 45 -99 45q-40 0 -65 -24t-25 -70q0 -23 7 -40.5t17 -30t20.5 -20t17.5 -11.5h213q10 0 10 -10v-101
q0 -10 -10 -10h-292q-25 0 -33 -12.5t-8 -29.5q0 -23 12 -32.5t47 -9.5h103q10 0 10 -10v-101q0 -10 -10 -10h-116q-92 0 -141 37.5t-49 121.5z" />
    <glyph glyph-name="aGhayn" unicode="&#x63a;" horiz-adv-x="555" arabic-form="isolated" 
d="M28 -46q0 67 28.5 103.5t70.5 50.5q-19 23 -31.5 54t-12.5 73q0 40 13 76.5t40 64.5t69 45t99 17q72 0 121 -23t74 -53q6 -7 -2 -15l-63 -75q-8 -7 -15 0q-44 45 -99 45q-40 0 -65 -24t-25 -70q0 -23 7 -40.5t17 -30t20.5 -20t17.5 -11.5h213q10 0 10 -10v-101
q0 -10 -10 -10h-292q-25 0 -33 -12.5t-8 -29.5q0 -23 12 -32.5t47 -9.5h103q10 0 10 -10v-101q0 -10 -10 -10h-116q-92 0 -141 37.5t-49 121.5zM240 521q-10 0 -10 10v98q0 10 10 10h124q10 0 10 -10v-98q0 -10 -10 -10h-124z" />
    <glyph glyph-name="aFeh" unicode="&#x641;" horiz-adv-x="979" arabic-form="isolated" 
d="M165 0q-63 0 -90 30.5t-27 95.5v221q0 10 10 10h122q10 0 10 -10v-173q0 -30 11.5 -41.5t36.5 -11.5h267q-16 33 -16 90q0 66 18.5 109.5t49.5 69.5t71 37t82 11q44 0 84 -11t70.5 -37t48.5 -69.5t18 -109.5q0 -61 -17 -101.5t-46.5 -65t-70 -34.5t-87.5 -10h-545z
M710 317q-82 0 -82 -98q0 -58 20.5 -80t61.5 -22t61.5 21.5t20.5 77.5q0 101 -82 101zM651 522q-10 0 -10 10v98q0 10 10 10h124q10 0 10 -10v-98q0 -10 -10 -10h-124z" />
    <glyph glyph-name="aQaf" unicode="&#x642;" horiz-adv-x="827" arabic-form="isolated" 
d="M770 -52q0 -72 -50.5 -112.5t-160.5 -40.5h-253q-71 0 -122.5 16t-85 45.5t-49.5 71.5t-16 94q0 56 19.5 109.5t44.5 91.5q5 9 15 3l102 -51q8 -5 3 -13q-17 -28 -29 -61t-12 -66q0 -35 13.5 -58t34.5 -36t47.5 -18t52.5 -5h208q30 0 50 3.5t31 9.5t15.5 15.5t4.5 21.5
v32h-97q-98 0 -150.5 48.5t-52.5 162.5q0 64 18 107.5t48.5 70t69.5 38t81 11.5q45 0 85 -11t70 -37t47.5 -69t17.5 -107v-266zM551 317q-40 0 -60.5 -27t-20.5 -75q0 -55 23 -74.5t61 -19.5h77v96q0 100 -80 100zM423 522q-10 0 -10 10v98q0 10 10 10h100q10 0 10 -10v-98
q0 -10 -10 -10h-100zM577 522q-10 0 -10 10v98q0 10 10 10h101q10 0 10 -10v-98q0 -10 -10 -10h-101z" />
    <glyph glyph-name="aKaf" unicode="&#x643;" horiz-adv-x="863" arabic-form="isolated" 
d="M440 453h17q36 0 51 -19t15 -57v-21q0 -39 -15 -53.5t-45 -14.5h-125q-10 0 -10 10v35q0 10 10 10h99q14 0 17.5 4.5t3.5 16.5q0 23 -6 28.5t-27 5.5h-56q-14 0 -14 14v30q0 7 4 11t6 7l74 88q5 5 9.5 4.5t6.5 -2.5q5 -4 12 -9t12.5 -10.5t8 -11t-1.5 -11.5zM661 670
q0 10 10 10h122q10 0 10 -10v-544q0 -65 -27 -95.5t-92 -30.5h-519q-63 0 -90 30.5t-27 95.5v221q0 10 10 10h122q10 0 10 -10v-173q0 -20 5.5 -30.5t15 -15.5t23.5 -6t32 -1h346q33 0 41 18.5t8 64.5v466z" />
    <glyph glyph-name="aLam" unicode="&#x644;" horiz-adv-x="611" arabic-form="isolated" 
d="M97 222q4 6 15 3l108 -35q5 -2 5.5 -5.5t-1.5 -7.5q-14 -28 -26 -63t-12 -79q0 -35 10 -59t26.5 -39t37 -21.5t41.5 -6.5q51 0 80 29t29 90v642q0 10 10 10h121q10 0 10 -10v-648q0 -63 -19.5 -107.5t-53.5 -73t-80.5 -42t-99.5 -13.5q-52 0 -98.5 13.5t-81.5 42
t-55.5 74t-20.5 108.5q0 50 14.5 103t40.5 95z" />
    <glyph glyph-name="aMim" unicode="&#x645;" horiz-adv-x="629" arabic-form="isolated" 
d="M361 -7q-45 0 -82.5 11t-65.5 37q-7 -11 -15 -17t-15.5 -13.5t-12.5 -18t-5 -28.5v-169h-142v190q0 34 8 55.5t20.5 36t27 24t28 19t23 21t11.5 30.5q-1 9 -1 19v21q0 66 18 109.5t48.5 69.5t70.5 37t84 11t84 -11t70.5 -37t48.5 -69.5t18 -109.5q0 -61 -17 -103
t-46.5 -67.5t-70 -36.5t-87.5 -11zM361 317q-82 0 -82 -101q0 -57 20.5 -79.5t61.5 -22.5q42 0 62 22.5t20 79.5q0 101 -82 101z" />
    <glyph glyph-name="aNun" unicode="&#x646;" horiz-adv-x="609" arabic-form="isolated" 
d="M256 414q-10 0 -10 10v98q0 10 10 10h124q10 0 10 -10v-98q0 -10 -10 -10h-124zM97 222q4 6 15 3l108 -35q5 -2 5.5 -5.5t-1.5 -7.5q-14 -28 -26 -63t-12 -79q0 -35 10 -59t26.5 -39t37 -21.5t41.5 -6.5q51 0 80 29t29 90v300q0 10 10 10h121q10 0 10 -10v-306
q0 -63 -19.5 -107.5t-53.5 -73t-80.5 -42t-99.5 -13.5q-52 0 -98.5 13.5t-81.5 42t-55.5 74t-20.5 108.5q0 50 14.5 103t40.5 95z" />
    <glyph glyph-name="aWaw" unicode="&#x648;" horiz-adv-x="539" arabic-form="isolated" 
d="M140 -205q-10 0 -10 10v101q0 10 10 10h115q20 0 36 2.5t27.5 11.5t18 25.5t6.5 44.5h-42q-60 0 -107.5 7t-81 29.5t-51 63t-17.5 108.5q0 64 18.5 108t49 71t70 39t81.5 12q44 0 84 -11t70 -36.5t47.5 -69t17.5 -107.5v-233q0 -94 -47.5 -140t-148.5 -46h-146zM264 317
q-41 0 -62 -28t-21 -76q0 -55 23.5 -73.5t61.5 -18.5h77v97q0 99 -79 99z" />
    <glyph glyph-name="aAlifMaksura" unicode="&#x649;" horiz-adv-x="809" arabic-form="isolated" 
d="M33 26q0 50 14 100.5t40 95.5q4 6 15 3l108 -35q5 -2 5.5 -5.5t-1.5 -7.5q-14 -28 -26 -63t-12 -79q0 -35 13.5 -58t34.5 -36t47.5 -18t52.5 -5h176q55 0 75.5 14t20.5 33q0 15 -16 29.5t-40.5 30t-53 34.5t-53 43t-40.5 55t-16 71q0 42 16.5 76t45 58t67.5 37t84 13
q67 0 113 -20.5t75 -55.5q3 -4 2 -6.5t-5 -7.5l-66 -70q-6 -5 -14 1q-20 19 -42.5 28.5t-50.5 9.5q-31 0 -54.5 -16t-23.5 -48q0 -23 16.5 -42.5t42 -38t54.5 -37.5t54.5 -42t42 -50.5t16.5 -63.5q0 -70 -51 -114t-159 -44h-234q-142 0 -207.5 61.5t-65.5 169.5z" />
    <glyph glyph-name="aYeh" unicode="&#x64a;" horiz-adv-x="809" arabic-form="isolated" 
d="M33 101q0 50 14 100.5t40 95.5q4 6 15 3l108 -35q5 -2 5.5 -5.5t-1.5 -7.5q-14 -28 -26 -63t-12 -79q0 -35 13.5 -58t34.5 -36t47.5 -18t52.5 -5h176q55 0 75.5 14t20.5 33q0 15 -16 29.5t-40.5 30t-53 34.5t-53 43t-40.5 55t-16 71q0 42 16.5 76t45 58t67.5 37t84 13
q67 0 113 -20.5t75 -55.5q3 -4 2 -6.5t-5 -7.5l-66 -70q-6 -5 -14 1q-20 19 -42.5 28.5t-50.5 9.5q-31 0 -54.5 -16t-23.5 -48q0 -23 16.5 -42.5t42 -38t54.5 -37.5t54.5 -42t42 -50.5t16.5 -63.5q0 -70 -51 -114t-159 -44h-234q-142 0 -207.5 61.5t-65.5 169.5zM274 -314
q-10 0 -10 10v98q0 10 10 10h100q10 0 10 -10v-98q0 -10 -10 -10h-100zM428 -314q-10 0 -10 10v98q0 10 10 10h101q10 0 10 -10v-98q0 -10 -10 -10h-101z" />
    <glyph glyph-name="aAlifWasla" unicode="&#x671;" horiz-adv-x="261" arabic-form="isolated" 
d="M201 10q0 -10 -10 -10h-121q-10 0 -10 10v660q0 10 10 10h121q10 0 10 -10v-660zM30 808q7 0 8.5 4.5t1.5 13.5v82q0 7 8 7h43q8 0 8 -7v-8q31 14 67 14q45 0 62.5 -23.5t17.5 -59.5q0 -44 -15 -58t-47 -14h-166q-7 0 -7 7v35q0 7 7 7h12zM153 865q-13 0 -27 -4.5
t-27 -9.5v-43h67q14 0 17.5 6t3.5 20q0 31 -34 31z" />
    <glyph glyph-name="aTteh" unicode="&#x679;" horiz-adv-x="856" arabic-form="isolated" 
d="M615 121q26 0 37.5 11.5t11.5 41.5v237q0 10 10 10h122q10 0 10 -10v-285q0 -65 -27 -95.5t-92 -30.5h-519q-63 0 -90 30.5t-27 95.5v221q0 10 10 10h122q10 0 10 -10v-173q0 -30 11.5 -41.5t36.5 -11.5h374v0zM326 487q10 0 10 11v152q0 7 8 7h43q8 0 8 -7v-71
q16 6 33 10t34 4q45 0 62.5 -23t17.5 -58q0 -42 -13 -58.5t-41 -16.5h-174q-7 0 -7 7v36q0 7 7 7h12zM449 543q-13 0 -26.5 -4t-27.5 -9v-43h67q14 0 17.5 5.5t3.5 19.5q0 31 -34 31z" />
    <glyph glyph-name="aPeh" unicode="&#x67e;" horiz-adv-x="856" arabic-form="isolated" 
d="M615 121q26 0 37.5 11.5t11.5 41.5v237q0 10 10 10h122q10 0 10 -10v-285q0 -65 -27 -95.5t-92 -30.5h-519q-63 0 -90 30.5t-27 95.5v221q0 10 10 10h122q10 0 10 -10v-173q0 -30 11.5 -41.5t36.5 -11.5h374v0zM300 -206q-10 0 -10 10v98q0 10 10 10h100q10 0 10 -10v-98
q0 -10 -10 -10h-100zM454 -206q-10 0 -10 10v98q0 10 10 10h101q10 0 10 -10v-98q0 -10 -10 -10h-101zM377 -347q-10 0 -10 10v98q0 10 10 10h101q10 0 10 -10v-98q0 -10 -10 -10h-101z" />
    <glyph glyph-name="aTcheh" unicode="&#x686;" horiz-adv-x="578" arabic-form="isolated" 
d="M329 -130q-7 0 -7 7v63q0 7 7 7h65q6 0 6 -7v-63q0 -7 -6 -7h-65zM429 -130q-7 0 -7 7v63q0 7 7 7h65q7 0 7 -7v-63q0 -7 -7 -7h-65zM379 -222q-7 0 -7 7v64q0 6 7 6h65q7 0 7 -6v-64q0 -7 -7 -7h-65zM213 -205q-46 0 -81.5 8t-59.5 27.5t-36.5 51t-12.5 78.5t13.5 78
t36.5 49.5t53.5 26t63.5 7.5h120q24 0 39.5 3.5t24 12t12 23t3.5 36.5q0 25 -5 47t-17 38.5t-32 26t-50 9.5q-31 0 -55 -12.5t-46 -31.5q-8 -6 -14 -1l-60 71q-3 4 -4.5 8t2.5 7q35 35 79.5 57.5t107.5 22.5q66 0 111.5 -19t74 -52.5t41.5 -79t13 -98.5q0 -58 -11.5 -94.5
t-33 -57.5t-53 -29t-71.5 -8h-151q-26 0 -37.5 -11t-11.5 -31q0 -23 13 -32.5t51 -9.5h55q10 0 10 -10v-101q0 -10 -10 -10h-72z" />
    <glyph glyph-name="aDdal" unicode="&#x688;" horiz-adv-x="496" arabic-form="isolated" 
d="M446 171q0 -49 -9.5 -82t-28 -52.5t-47 -28t-66.5 -8.5h-242q-10 0 -10 10v101q0 10 10 10h172q25 0 40 3.5t22.5 11.5t10 21t2.5 32v54q0 39 -22.5 56.5t-67.5 17.5h-115q-10 0 -10 10v101q0 10 10 10h174q85 0 131 -43.5t46 -136.5v-87zM134 553q10 0 10 11v152
q0 7 8 7h43q8 0 8 -7v-71q16 6 33 10t34 4q45 0 62.5 -23t17.5 -58q0 -42 -13 -58.5t-41 -16.5h-174q-7 0 -7 7v36q0 7 7 7h12zM257 609q-13 0 -26.5 -4t-27.5 -9v-43h67q14 0 17.5 5.5t3.5 19.5q0 31 -34 31z" />
    <glyph glyph-name="aRreh" unicode="&#x691;" horiz-adv-x="309" arabic-form="isolated" 
d="M12 -205q-10 0 -10 10v101q0 10 10 10h22q41 0 58.5 21t17.5 64v410q0 10 10 10h122q10 0 10 -10v-415q0 -103 -48 -152t-146 -49h-46zM79 553q10 0 10 11v152q0 7 8 7h43q8 0 8 -7v-71q16 6 33 10t34 4q45 0 62.5 -23t17.5 -58q0 -42 -13 -58.5t-41 -16.5h-174
q-7 0 -7 7v36q0 7 7 7h12zM202 609q-13 0 -26.5 -4t-27.5 -9v-43h67q14 0 17.5 5.5t3.5 19.5q0 31 -34 31z" />
    <glyph glyph-name="aJeh" unicode="&#x698;" horiz-adv-x="309" arabic-form="isolated" 
d="M12 -205q-10 0 -10 10v101q0 10 10 10h22q41 0 58.5 21t17.5 64v410q0 10 10 10h122q10 0 10 -10v-415q0 -103 -48 -152t-146 -49h-46zM51 522q-10 0 -10 10v98q0 10 10 10h100q10 0 10 -10v-98q0 -10 -10 -10h-100zM205 522q-10 0 -10 10v98q0 10 10 10h101q10 0 10 -10
v-98q0 -10 -10 -10h-101zM129 665q-10 0 -10 10v98q0 10 10 10h100q10 0 10 -10v-98q0 -10 -10 -10h-100z" />
    <glyph glyph-name="aVeh" unicode="&#x6a4;" horiz-adv-x="979" arabic-form="isolated" 
d="M165 0q-63 0 -90 30.5t-27 95.5v221q0 10 10 10h122q10 0 10 -10v-173q0 -30 11.5 -41.5t36.5 -11.5h267q-16 33 -16 90q0 66 18.5 109.5t49.5 69.5t71 37t82 11q44 0 84 -11t70.5 -37t48.5 -69.5t18 -109.5q0 -61 -17 -101.5t-46.5 -65t-70 -34.5t-87.5 -10h-545z
M710 317q-82 0 -82 -98q0 -58 20.5 -80t61.5 -22t61.5 21.5t20.5 77.5q0 101 -82 101zM579 522q-10 0 -10 10v98q0 10 10 10h100q10 0 10 -10v-98q0 -10 -10 -10h-100zM733 522q-10 0 -10 10v98q0 10 10 10h101q10 0 10 -10v-98q0 -10 -10 -10h-101zM657 665q-10 0 -10 10
v98q0 10 10 10h100q10 0 10 -10v-98q0 -10 -10 -10h-100z" />
    <glyph glyph-name="aKeheh" unicode="&#x6a9;" horiz-adv-x="881" arabic-form="isolated" 
d="M165 0q-63 0 -90 30.5t-27 95.5v221q0 10 10 10h122q10 0 10 -10v-173q0 -19 4.5 -29.5t13.5 -16t22.5 -6.5t31.5 -1h347q24 0 39 3t23 10.5t10.5 20.5t2.5 33v46q0 25 -7 40t-20.5 23t-34.5 10.5t-48 2.5h-130q-8 0 -9 10t-1 18v64q0 5 3.5 9.5t5.5 6.5l226 266
q6 7 13 3l82 -70q8 -6 4 -14l-149 -174q48 -2 87.5 -10.5t67 -28.5t42.5 -55t15 -90v-74q0 -49 -9.5 -82t-28.5 -52.5t-47.5 -28t-66.5 -8.5h-514z" />
    <glyph glyph-name="aGaf" unicode="&#x6af;" horiz-adv-x="881" arabic-form="isolated" 
d="M165 0q-63 0 -90 30.5t-27 95.5v221q0 10 10 10h122q10 0 10 -10v-173q0 -19 4.5 -29.5t13.5 -16t22.5 -6.5t31.5 -1h347q24 0 39 3t23 10.5t10.5 20.5t2.5 33v46q0 25 -7 40t-20.5 23t-34.5 10.5t-48 2.5h-130q-8 0 -9 10t-1 18v64q0 5 3.5 9.5t5.5 6.5l226 266
q6 7 13 3l82 -70q8 -6 4 -14l-149 -174q48 -2 87.5 -10.5t67 -28.5t42.5 -55t15 -90v-74q0 -49 -9.5 -82t-28.5 -52.5t-47.5 -28t-66.5 -8.5h-514zM408 457q-6 -7 -13 -3l-70 58q-8 5 -4 14l222 261q6 7 13 3l70 -58q8 -6 4 -14z" />
    <glyph glyph-name="aNunGhunna" unicode="&#x6ba;" horiz-adv-x="609" arabic-form="isolated" 
d="M97 222q4 6 15 3l108 -35q5 -2 5.5 -5.5t-1.5 -7.5q-14 -28 -26 -63t-12 -79q0 -35 10 -59t26.5 -39t37 -21.5t41.5 -6.5q51 0 80 29t29 90v300q0 10 10 10h121q10 0 10 -10v-306q0 -63 -19.5 -107.5t-53.5 -73t-80.5 -42t-99.5 -13.5q-52 0 -98.5 13.5t-81.5 42
t-55.5 74t-20.5 108.5q0 50 14.5 103t40.5 95z" />
    <glyph glyph-name="aHehDoachashmi" unicode="&#x6be;" horiz-adv-x="726" arabic-form="isolated" 
d="M316 258q-28 0 -43.5 -18.5t-15.5 -52.5q0 -35 14 -51.5t39 -18.5h11q26 2 39 18.5t13 51.5q0 34 -14.5 52.5t-42.5 18.5zM173 121q-14 30 -14 70q0 41 13.5 70t35 47t49.5 26.5t58 8.5q75 0 118 -36.5t43 -115.5q0 -21 -5.5 -38.5t-12.5 -31.5q45 0 60 27.5t15 67.5
q0 39 -12.5 67t-35 46t-54 26.5t-69.5 8.5q-34 0 -71.5 -5.5t-73.5 -16.5q-4 -2 -10 -3t-8 5l-21 75q-2 6 -1.5 10.5t7.5 7.5q49 19 96.5 30t112.5 11q84 0 139.5 -22.5t88 -59.5t45.5 -83t13 -94q0 -56 -10 -97.5t-33.5 -68.5t-62 -40t-95.5 -13h-288q-23 0 -29.5 -6.5
t-6.5 -27.5v-44q0 -10 -10 -10h-122q-10 0 -10 10v110q0 47 25 68t69 21h67z" />
    <glyph glyph-name="aHehGoal" unicode="&#x6c1;" horiz-adv-x="532" arabic-form="isolated" 
d="M263 -7q-47 0 -87.5 11t-70 36.5t-46.5 67.5t-17 103q0 66 18 109.5t48.5 69.5t70.5 37t84 11t84 -11t70.5 -37t48.5 -69.5t18 -109.5q0 -61 -17 -103t-46.5 -67.5t-70 -36.5t-87.5 -11zM263 317q-82 0 -82 -101q0 -57 21 -79.5t61 -22.5q42 0 62 22.5t20 79.5
q0 101 -82 101z" />
    <glyph glyph-name="aHehGoalHamzaabove.fina" unicode="&#x6c2;" horiz-adv-x="492" 
d="M171 558q-6 11 -10 24t-4 29q0 18 6.5 36t19.5 32.5t33.5 23t49.5 8.5q32 0 55.5 -11.5t36.5 -28.5q3 -5 -1 -9l-30 -31q-5 -6 -10 -1q-21 23 -47 23q-19 0 -31 -12t-12 -32q0 -18 9.5 -31t20.5 -20h100q6 0 6 -7v-45q0 -7 -6 -7h-223q-6 0 -6 7v45q0 7 6 7h37zM446 193
q0 -35 11.5 -53.5t53.5 -18.5h25q21 0 30.5 -13.5t9.5 -48.5q0 -32 -10 -45.5t-30 -13.5h-87q-144 0 -144 141v153h-49q-45 0 -60 -24t-15 -81v-179q0 -10 -10 -10h-121q-10 0 -10 10v224q0 58 17.5 94.5t45.5 57t63 28t71 7.5h199q10 0 10 -10v-218z" />
    <glyph glyph-name="aTehMarbutaGoal.fina" unicode="&#x6c3;" horiz-adv-x="568" 
d="M115 556q-10 0 -10 10v98q0 10 10 10h100q10 0 10 -10v-98q0 -10 -10 -10h-100zM269 556q-10 0 -10 10v98q0 10 10 10h101q10 0 10 -10v-98q0 -10 -10 -10h-101zM339 438v43q0 10 10 10h122q10 0 10 -10v-307q0 -30 11.5 -41.5t36.5 -11.5h31q40 0 40 -61
q0 -35 -9.5 -47.5t-30.5 -12.5h-104q-49 0 -76.5 15.5t-36.5 58.5q-22 -18 -51 -27t-61 -9q-39 0 -74.5 11t-62.5 34t-42.5 60t-15.5 90q0 60 17.5 99.5t46 63t65 33t74.5 9.5h100zM256 159q38 0 60.5 21.5t22.5 67.5v69h-80q-38 0 -61 -18t-23 -66q0 -41 23 -57.5t58 -16.5
z" />
    <glyph glyph-name="aYehFarsi" unicode="&#x6cc;" horiz-adv-x="809" arabic-form="isolated" 
d="M33 26q0 50 14 100.5t40 95.5q4 6 15 3l108 -35q5 -2 5.5 -5.5t-1.5 -7.5q-14 -28 -26 -63t-12 -79q0 -35 13.5 -58t34.5 -36t47.5 -18t52.5 -5h176q55 0 75.5 14t20.5 33q0 15 -16 29.5t-40.5 30t-53 34.5t-53 43t-40.5 55t-16 71q0 42 16.5 76t45 58t67.5 37t84 13
q67 0 113 -20.5t75 -55.5q3 -4 2 -6.5t-5 -7.5l-66 -70q-6 -5 -14 1q-20 19 -42.5 28.5t-50.5 9.5q-31 0 -54.5 -16t-23.5 -48q0 -23 16.5 -42.5t42 -38t54.5 -37.5t54.5 -42t42 -50.5t16.5 -63.5q0 -70 -51 -114t-159 -44h-234q-142 0 -207.5 61.5t-65.5 169.5z" />
    <glyph glyph-name="aYehBarri" unicode="&#x6d2;" horiz-adv-x="779" arabic-form="isolated" 
d="M357 344q-22 -30 -52.5 -54.5t-58 -45.5t-47 -40.5t-19.5 -39.5q0 -18 16.5 -30.5t57.5 -12.5h495q10 0 10 -10v-101q0 -10 -10 -10h-503q-105 0 -155 37t-50 103q0 44 21.5 79.5t54 68.5t69.5 66t69 72q6 8 15 1l86 -69q6 -6 1 -14z" />
    <glyph glyph-name="aYehBarriHamzaabove" unicode="&#x6d3;" horiz-adv-x="819" arabic-form="isolated" 
d="M364 344q-22 -30 -52.5 -54.5t-58 -45.5t-47 -40.5t-19.5 -39.5q0 -18 16.5 -30.5t57.5 -12.5h495q10 0 10 -10v-101q0 -10 -10 -10h-503q-105 0 -155 37t-50 103q0 44 21.5 79.5t54 68.5t69.5 66t69 72q6 8 15 1l86 -69q6 -6 1 -14zM98 521q-6 11 -10 24t-4 29
q0 18 6.5 36t19.5 32.5t33.5 23t49.5 8.5q32 0 55.5 -11.5t36.5 -28.5q3 -5 -1 -9l-30 -31q-5 -6 -10 -1q-21 23 -47 23q-19 0 -31 -12t-12 -32q0 -18 9.5 -31t20.5 -20h100q6 0 6 -7v-45q0 -7 -6 -7h-223q-6 0 -6 7v45q0 7 6 7h37z" />
    <glyph glyph-name="aAe.fina" unicode="&#x6d5;" horiz-adv-x="568" 
d="M339 438v43q0 10 10 10h122q10 0 10 -10v-307q0 -30 11.5 -41.5t36.5 -11.5h31q40 0 40 -61q0 -35 -9.5 -47.5t-30.5 -12.5h-104q-49 0 -76.5 15.5t-36.5 58.5q-22 -18 -51 -27t-61 -9q-39 0 -74.5 11t-62.5 34t-42.5 60t-15.5 90q0 60 17.5 99.5t46 63t65 33t74.5 9.5
h100zM256 159q38 0 60.5 21.5t22.5 67.5v69h-80q-38 0 -61 -18t-23 -66q0 -41 23 -57.5t58 -16.5z" />
    <glyph glyph-name="aAlifWasla.fina" unicode="&#x671;" horiz-adv-x="276" arabic-form="final" 
d="M33 808q7 0 8.5 4.5t1.5 13.5v82q0 7 8 7h43q8 0 8 -7v-8q31 14 67 14q45 0 62.5 -23.5t17.5 -59.5q0 -44 -15 -58t-47 -14h-166q-7 0 -7 7v35q0 7 7 7h12zM156 865q-13 0 -27 -4.5t-27 -9.5v-43h67q14 0 17.5 6t3.5 20q0 31 -34 31zM60 670q0 10 10 10h121q10 0 10 -10
v-496q0 -30 11.5 -41.5t36.5 -11.5h27q20 0 30 -14.5t10 -48.5q0 -36 -9.5 -47t-30.5 -11h-99q-63 0 -90 30.5t-27 95.5v544z" />
    <glyph glyph-name="aPeh.fina" unicode="&#x67e;" horiz-adv-x="901" arabic-form="final" 
d="M664 411q0 10 10 10h122q10 0 10 -10v-238q2 -24 21.5 -38t54.5 -14h22q20 0 30 -14t10 -46q0 -61 -40 -61q-37 0 -65 9t-47 41q-15 -30 -44.5 -40t-82.5 -10h-497q-63 0 -90 30.5t-27 95.5v221q0 10 10 10h122q10 0 10 -10v-173q0 -30 11.5 -41.5t36.5 -11.5h374
q32 0 40.5 16t8.5 59v215zM299 -206q-10 0 -10 10v98q0 10 10 10h100q10 0 10 -10v-98q0 -10 -10 -10h-100zM453 -206q-10 0 -10 10v98q0 10 10 10h101q10 0 10 -10v-98q0 -10 -10 -10h-101zM376 -347q-10 0 -10 10v98q0 10 10 10h101q10 0 10 -10v-98q0 -10 -10 -10h-101z
" />
    <glyph glyph-name="aPeh.init" unicode="&#x67e;" horiz-adv-x="319" arabic-form="initial" 
d="M0 0q-20 0 -30 12.5t-10 44.5q0 64 40 64h62q25 0 36.5 11.5t11.5 41.5v237q0 10 10 10h121q10 0 10 -10v-285q0 -65 -27 -95.5t-90 -30.5h-134zM37 -206q-10 0 -10 10v98q0 10 10 10h100q10 0 10 -10v-98q0 -10 -10 -10h-100zM191 -206q-10 0 -10 10v98q0 10 10 10h101
q10 0 10 -10v-98q0 -10 -10 -10h-101zM114 -347q-10 0 -10 10v98q0 10 10 10h101q10 0 10 -10v-98q0 -10 -10 -10h-101z" />
    <glyph glyph-name="aPeh.medi" unicode="&#x67e;" horiz-adv-x="353" arabic-form="medial" 
d="M53 -206q-10 0 -10 10v98q0 10 10 10h100q10 0 10 -10v-98q0 -10 -10 -10h-100zM207 -206q-10 0 -10 10v98q0 10 10 10h101q10 0 10 -10v-98q0 -10 -10 -10h-101zM130 -347q-10 0 -10 10v98q0 10 10 10h101q10 0 10 -10v-98q0 -10 -10 -10h-101zM113 411q0 10 10 10h121
q10 0 10 -10v-236q2 -25 21.5 -39.5t54.5 -14.5h23q20 0 30 -14t10 -46q0 -61 -40 -61q-38 0 -66 9t-47 41q-16 -32 -47.5 -41t-86.5 -9h-103q-20 0 -30 12.5t-10 46.5t9.5 48t30.5 14h62q32 0 40 18.5t8 63.5v208z" />
    <glyph glyph-name="aTteh.fina" unicode="&#x679;" horiz-adv-x="901" arabic-form="final" 
d="M326 487q10 0 10 11v152q0 7 8 7h43q8 0 8 -7v-71q16 6 33 10t34 4q45 0 62.5 -23t17.5 -58q0 -42 -13 -58.5t-41 -16.5h-174q-7 0 -7 7v36q0 7 7 7h12zM449 543q-13 0 -26.5 -4t-27.5 -9v-43h67q14 0 17.5 5.5t3.5 19.5q0 31 -34 31zM664 411q0 10 10 10h122
q10 0 10 -10v-238q2 -24 21.5 -38t54.5 -14h22q20 0 30 -14t10 -46q0 -61 -40 -61q-37 0 -65 9t-47 41q-15 -30 -44.5 -40t-82.5 -10h-497q-63 0 -90 30.5t-27 95.5v221q0 10 10 10h122q10 0 10 -10v-173q0 -30 11.5 -41.5t36.5 -11.5h374q32 0 40.5 16t8.5 59v215z" />
    <glyph glyph-name="aTteh.init" unicode="&#x679;" horiz-adv-x="285" arabic-form="initial" 
d="M51 553q10 0 10 11v152q0 7 8 7h43q8 0 8 -7v-71q16 6 33 10t34 4q45 0 62.5 -23t17.5 -58q0 -42 -13 -58.5t-41 -16.5h-174q-7 0 -7 7v36q0 7 7 7h12zM174 609q-13 0 -26.5 -4t-27.5 -9v-43h67q14 0 17.5 5.5t3.5 19.5q0 31 -34 31zM0 0q-20 0 -30 7t-10 28q0 12 2.5 27
t7 28t12 22t18.5 9h35q25 0 36.5 11.5t11.5 41.5v237q0 10 10 10h122q10 0 10 -10v-285q0 -65 -27 -95.5t-90 -30.5h-108z" />
    <glyph glyph-name="aTteh.medi" unicode="&#x679;" horiz-adv-x="323" arabic-form="medial" 
d="M59 553q10 0 10 11v152q0 7 8 7h43q8 0 8 -7v-71q16 6 33 10t34 4q45 0 62.5 -23t17.5 -58q0 -42 -13 -58.5t-41 -16.5h-174q-7 0 -7 7v36q0 7 7 7h12zM182 609q-13 0 -26.5 -4t-27.5 -9v-43h67q14 0 17.5 5.5t3.5 19.5q0 31 -34 31zM214 50q-17 -31 -47 -40.5t-84 -9.5
h-80q-20 0 -30 6.5t-10 28.5q0 13 2 28t7 28t13 21.5t20 8.5h33q31 0 39.5 17.5t8.5 62.5v210q0 8 14.5 9t25.5 1h92q10 0 10 -10v-236q2 -25 21.5 -39.5t54.5 -14.5h23q20 0 30 -14t10 -46q0 -61 -40 -61q-38 0 -66 9t-47 41z" />
    <glyph glyph-name="aVeh.fina" unicode="&#x6a4;" horiz-adv-x="973" arabic-form="final" 
d="M694 438q51 0 92 -11.5t70 -33.5t44.5 -54t15.5 -74q0 -46 -22 -83.5t-55 -61.5q8 1 16 1h16h102q20 0 30 -12.5t10 -47.5q0 -34 -9.5 -47.5t-30.5 -13.5h-124q-42 0 -83.5 4t-70.5 20q-18 -9 -40 -14t-44 -7t-42.5 -2.5t-35.5 -0.5h-368q-63 0 -90 30.5t-27 95.5v226
q0 10 10 10h122q10 0 10 -10v-178q0 -19 5 -29.5t14 -16t22.5 -6.5t31.5 -1h286q-33 23 -55 60.5t-22 83.5q0 42 15.5 74t44.5 54t70 33.5t92 11.5zM694 339q-31 0 -56 -20.5t-25 -64.5q0 -45 24 -72.5t57 -43.5q33 16 57 43.5t24 72.5q0 22 -7 38t-18 26.5t-25.5 15.5
t-30.5 5zM569 522q-10 0 -10 10v98q0 10 10 10h100q10 0 10 -10v-98q0 -10 -10 -10h-100zM723 522q-10 0 -10 10v98q0 10 10 10h101q10 0 10 -10v-98q0 -10 -10 -10h-101zM647 665q-10 0 -10 10v98q0 10 10 10h100q10 0 10 -10v-98q0 -10 -10 -10h-100z" />
    <glyph glyph-name="aVeh.init" unicode="&#x6a4;" horiz-adv-x="554" arabic-form="initial" 
d="M3 0q-21 0 -30.5 12.5t-9.5 48.5q0 32 10 46t30 14h77q-16 33 -16 90q0 66 18.5 109.5t49.5 69.5t71 37t82 11q44 0 84 -11t70.5 -37t48.5 -69.5t18 -109.5q0 -61 -17 -101.5t-46.5 -65t-70 -34.5t-87.5 -10h-282zM285 317q-82 0 -82 -98q0 -58 20.5 -80t61.5 -22
t61.5 21.5t20.5 77.5q0 101 -82 101zM158 522q-10 0 -10 10v98q0 10 10 10h100q10 0 10 -10v-98q0 -10 -10 -10h-100zM312 522q-10 0 -10 10v98q0 10 10 10h101q10 0 10 -10v-98q0 -10 -10 -10h-101zM236 665q-10 0 -10 10v98q0 10 10 10h100q10 0 10 -10v-98q0 -10 -10 -10
h-100z" />
    <glyph glyph-name="aVeh.medi" unicode="&#x6a4;" horiz-adv-x="560" arabic-form="medial" 
d="M281 438q51 0 92 -11.5t70 -33t44.5 -53.5t15.5 -74q0 -47 -22 -84.5t-56 -61.5q8 1 16.5 1h16.5h102q20 0 30 -12.5t10 -47.5q0 -34 -9.5 -47.5t-30.5 -13.5h-149q-36 0 -68 3t-61 21q-33 -18 -70.5 -21t-66.5 -3h-145q-21 0 -30.5 14t-9.5 48q0 32 9.5 45.5t30.5 13.5
h136q-34 23 -55.5 60.5t-21.5 84.5q0 42 15.5 74t44.5 53.5t70 33t92 11.5zM281 339q-32 0 -56.5 -20t-24.5 -64q0 -46 24 -73.5t57 -43.5q33 16 57 43.5t24 73.5q0 44 -25 64t-56 20zM155 522q-10 0 -10 10v98q0 10 10 10h100q10 0 10 -10v-98q0 -10 -10 -10h-100zM309 522
q-10 0 -10 10v98q0 10 10 10h101q10 0 10 -10v-98q0 -10 -10 -10h-101zM233 665q-10 0 -10 10v98q0 10 10 10h100q10 0 10 -10v-98q0 -10 -10 -10h-100z" />
    <glyph glyph-name="aTcheh.fina" unicode="&#x686;" horiz-adv-x="633" arabic-form="final" 
d="M331 -130q-7 0 -7 7v63q0 7 7 7h65q6 0 6 -7v-63q0 -7 -6 -7h-65zM431 -130q-7 0 -7 7v63q0 7 7 7h65q7 0 7 -7v-63q0 -7 -7 -7h-65zM381 -222q-7 0 -7 7v64q0 6 7 6h65q7 0 7 -6v-64q0 -7 -7 -7h-65zM215 -205q-46 0 -81.5 8t-59.5 27.5t-36.5 51t-12.5 78.5t13.5 78
t36.5 49.5t53.5 26t63.5 7.5h119q24 0 39 3.5t23.5 12t12 23t3.5 36.5q0 25 -5 47t-17 38.5t-31.5 26t-48.5 9.5q-32 0 -57 -12.5t-46 -31.5q-7 -7 -14 -1l-59 71q-9 9 -3 15q35 35 79.5 57.5t108.5 22.5q66 0 111.5 -19t74 -52.5t41.5 -79t13 -98.5q0 -5 -0.5 -9t-0.5 -8
q3 -23 22 -37t54 -14h23q20 0 30 -14t10 -46q0 -61 -40 -61q-42 0 -73 11.5t-51 49.5q-20 -36 -56.5 -48.5t-86.5 -12.5h-151q-26 0 -37 -11t-11 -31q0 -23 13 -32.5t51 -9.5h55q10 0 10 -10v-101q0 -10 -10 -10h-72z" />
    <glyph glyph-name="aTcheh.init" unicode="&#x686;" horiz-adv-x="520" arabic-form="initial" 
d="M0 0q-20 0 -30 13.5t-10 45.5q0 33 9.5 47.5t30.5 14.5h248q24 0 39 3.5t23.5 13.5t12 26.5t3.5 42.5q0 21 -5 40.5t-17 35t-31.5 25t-48.5 9.5q-32 0 -57 -12.5t-46 -31.5q-7 -7 -14 -1l-59 71q-9 9 -3 15q35 34 80 57t113 23q64 0 109 -19t73 -51t40.5 -75t12.5 -91
q0 -63 -11.5 -102t-33 -61.5t-53 -30.5t-71.5 -8h-304zM120 -206q-10 0 -10 10v98q0 10 10 10h100q10 0 10 -10v-98q0 -10 -10 -10h-100zM274 -206q-10 0 -10 10v98q0 10 10 10h101q10 0 10 -10v-98q0 -10 -10 -10h-101zM197 -347q-10 0 -10 10v98q0 10 10 10h101
q10 0 10 -10v-98q0 -10 -10 -10h-101z" />
    <glyph glyph-name="aTcheh.medi" unicode="&#x686;" horiz-adv-x="571" arabic-form="medial" 
d="M45 358q35 35 79.5 57.5t108.5 22.5q66 0 111.5 -19t74 -52.5t41.5 -79t13 -98.5v-16q3 -24 21.5 -38t53.5 -14h23q20 0 30 -14t10 -46q0 -61 -40 -61q-42 0 -73 11.5t-51 49.5q-20 -36 -56.5 -48.5t-86.5 -12.5h-304q-20 0 -30 13.5t-10 45.5t9 47t31 15h248
q24 0 39 3.5t23.5 12t12 23t3.5 36.5q0 25 -5 47t-17 38.5t-31.5 26t-48.5 9.5q-32 0 -57 -12.5t-46 -31.5q-7 -7 -14 -1l-59 71q-9 9 -3 15zM120 -206q-10 0 -10 10v98q0 10 10 10h100q10 0 10 -10v-98q0 -10 -10 -10h-100zM274 -206q-10 0 -10 10v98q0 10 10 10h101
q10 0 10 -10v-98q0 -10 -10 -10h-101zM197 -347q-10 0 -10 10v98q0 10 10 10h101q10 0 10 -10v-98q0 -10 -10 -10h-101z" />
    <glyph glyph-name="aDdal.fina" unicode="&#x688;" horiz-adv-x="544" arabic-form="final" 
d="M225 121q25 0 40 3.5t22.5 11.5t10 21t2.5 32v54q0 39 -22.5 56.5t-67.5 17.5h-115q-10 0 -10 10v101q0 10 10 10h157q93 0 143.5 -40.5t50.5 -139.5v-83q2 -25 21.5 -39.5t54.5 -14.5h22q20 0 30 -14t10 -46q0 -61 -40 -61q-41 0 -71.5 11t-49.5 46q-18 -32 -49.5 -44.5
t-78.5 -12.5h-242q-10 0 -10 10v101q0 10 10 10h172zM134 553q10 0 10 11v152q0 7 8 7h43q8 0 8 -7v-71q16 6 33 10t34 4q45 0 62.5 -23t17.5 -58q0 -42 -13 -58.5t-41 -16.5h-174q-7 0 -7 7v36q0 7 7 7h12zM257 609q-13 0 -26.5 -4t-27.5 -9v-43h67q14 0 17.5 5.5t3.5 19.5
q0 31 -34 31z" />
    <glyph glyph-name="aJeh.fina" unicode="&#x698;" horiz-adv-x="350" arabic-form="final" 
d="M110 411q0 10 10 10h122q10 0 10 -10v-236q2 -25 21.5 -39.5t54.5 -14.5h22q20 0 30 -14t10 -46q0 -61 -40 -61q-33 0 -57 6.5t-41 27.5v-16q0 -114 -44 -168.5t-150 -54.5h-46q-10 0 -10 10v101q0 10 10 10h22q27 0 42 8.5t22.5 25t9.5 40.5t2 55v366zM52 522
q-10 0 -10 10v98q0 10 10 10h100q10 0 10 -10v-98q0 -10 -10 -10h-100zM206 522q-10 0 -10 10v98q0 10 10 10h101q10 0 10 -10v-98q0 -10 -10 -10h-101zM130 665q-10 0 -10 10v98q0 10 10 10h100q10 0 10 -10v-98q0 -10 -10 -10h-100z" />
    <glyph glyph-name="aRreh.fina" unicode="&#x691;" horiz-adv-x="350" arabic-form="final" 
d="M110 411q0 10 10 10h122q10 0 10 -10v-236q2 -25 21.5 -39.5t54.5 -14.5h22q20 0 30 -14t10 -46q0 -61 -40 -61q-33 0 -57 6.5t-41 27.5v-16q0 -114 -44 -168.5t-150 -54.5h-46q-10 0 -10 10v101q0 10 10 10h22q27 0 42 8.5t22.5 25t9.5 40.5t2 55v366zM79 553
q10 0 10 11v152q0 7 8 7h43q8 0 8 -7v-71q16 6 33 10t34 4q45 0 62.5 -23t17.5 -58q0 -42 -13 -58.5t-41 -16.5h-174q-7 0 -7 7v36q0 7 7 7h12zM202 609q-13 0 -26.5 -4t-27.5 -9v-43h67q14 0 17.5 5.5t3.5 19.5q0 31 -34 31z" />
    <glyph glyph-name="aKeheh.fina" unicode="&#x6a9;" horiz-adv-x="928" arabic-form="final" 
d="M165 0q-63 0 -90 30.5t-27 95.5v221q0 10 10 10h122q10 0 10 -10v-173q0 -30 11.5 -41.5t36.5 -11.5h371q24 0 39 3t23 10.5t10.5 20.5t2.5 33v46q0 41 -21.5 58.5t-68.5 17.5h-150q-8 0 -9 10t-1 18v64q0 5 3.5 9.5t5.5 6.5l226 266q6 7 13 3l82 -70q8 -6 4 -14
l-149 -174q48 -1 87.5 -9.5t67 -29t42.5 -55.5t15 -90v-44v-16t-1 -16q4 -22 23 -35t53 -13h22q20 0 30 -14t10 -46q0 -61 -40 -61q-42 0 -71.5 10.5t-49.5 45.5q-18 -31 -49.5 -43.5t-78.5 -12.5h-514z" />
    <glyph glyph-name="aKeheh.init" unicode="&#x6a9;" horiz-adv-x="495" arabic-form="initial" 
d="M233 429q52 -2 91.5 -11t66.5 -31.5t40.5 -60.5t13.5 -96v-59q0 -49 -9.5 -82t-28 -52.5t-47 -28t-66.5 -8.5h-294q-20 0 -30 14t-10 50q0 34 9.5 45.5t30.5 11.5h224q24 0 39 3t23 10.5t10.5 20.5t2.5 33v46q0 40 -21.5 58t-68.5 18h-150q-10 0 -10 10v82q0 7 8 15.5
t14 15.5l212 251q6 7 13 3l83 -70q8 -6 4 -14z" />
    <glyph glyph-name="aKeheh.medi" unicode="&#x6a9;" horiz-adv-x="543" arabic-form="medial" 
d="M233 429q49 -2 88 -10t66.5 -28.5t42.5 -55.5t15 -90v-73q0 -24 20.5 -37.5t55.5 -13.5h22q20 0 30 -14t10 -46q0 -61 -40 -61q-42 0 -72 11t-49 46q-18 -32 -50 -44.5t-78 -12.5h-294q-20 0 -30 14t-10 50q0 34 9.5 45.5t30.5 11.5h224q24 0 39 3t23 10.5t10.5 20.5
t2.5 33v46q0 40 -21.5 58t-68.5 18h-150q-10 0 -10 10v82q0 7 7.5 15t12.5 14l214 253q6 7 13 3l83 -70q8 -6 4 -14z" />
    <glyph glyph-name="aGaf.fina" unicode="&#x6af;" horiz-adv-x="923" arabic-form="final" 
d="M415 457q-6 -7 -13 -3l-70 58q-8 5 -4 14l222 261q6 7 13 3l70 -58q8 -6 4 -14zM172 0q-63 0 -90 30.5t-27 95.5v221q0 10 10 10h122q10 0 10 -10v-173q0 -30 11.5 -41.5t36.5 -11.5h371q24 0 39 3t23 10.5t10.5 20.5t2.5 33v46q0 41 -21.5 58.5t-68.5 17.5h-150
q-8 0 -9 10t-1 18v64q0 5 3.5 9.5t5.5 6.5l226 266q6 7 13 3l82 -70q8 -6 4 -14l-149 -174q48 -1 87.5 -9.5t67 -29t42.5 -55.5t15 -90v-44v-16t-1 -16q4 -22 23 -35t53 -13h22q20 0 30 -14t10 -46q0 -61 -40 -61q-42 0 -71.5 10.5t-49.5 45.5q-18 -31 -49.5 -43.5
t-78.5 -12.5h-514z" />
    <glyph glyph-name="aGaf.init" unicode="&#x6af;" horiz-adv-x="551" arabic-form="initial" 
d="M289 429q52 -2 91.5 -11t66.5 -31.5t40.5 -60.5t13.5 -96v-59q0 -49 -9.5 -82t-28 -52.5t-47 -28t-66.5 -8.5h-350q-20 0 -30 14t-10 50q0 34 9.5 45.5t30.5 11.5h280q24 0 39 3t23 10.5t10.5 20.5t2.5 33v46q0 40 -21.5 58t-68.5 18h-150q-10 0 -10 10v82q0 7 8 15.5
t14 15.5l212 251q6 7 13 3l83 -70q8 -6 4 -14zM79 457q-6 -7 -13 -3l-70 58q-8 5 -4 14l222 261q6 7 13 3l70 -58q8 -6 4 -14z" />
    <glyph glyph-name="aGaf.medi" unicode="&#x6af;" horiz-adv-x="596" arabic-form="medial" 
d="M287 429q49 -2 88 -10t66.5 -28.5t42.5 -55.5t15 -90v-73q3 -24 22 -37.5t54 -13.5h22q20 0 30 -14t10 -46q0 -61 -40 -61q-42 0 -72 11t-49 46q-18 -32 -50 -44.5t-78 -12.5h-348q-20 0 -30 14t-10 50q0 34 9.5 45.5t30.5 11.5h278q24 0 39 3t23 10.5t10.5 20.5t2.5 33
v46q0 40 -21.5 58t-68.5 18h-150q-10 0 -10 10v82q0 7 7.5 15t12.5 14l214 253q6 7 13 3l83 -70q8 -6 4 -14zM78 457q-6 -7 -13 -3l-70 58q-8 5 -4 14l222 261q6 7 13 3l70 -58q8 -6 4 -14z" />
    <glyph glyph-name="aNunGhunna.fina" unicode="&#x6ba;" horiz-adv-x="646" arabic-form="final" 
d="M410 328q0 10 10 10h121q10 0 10 -10v-153q2 -25 21.5 -39.5t54.5 -14.5h19q20 0 30 -14t10 -46q0 -61 -40 -61q-30 0 -53.5 5.5t-41.5 25.5v-9q0 -63 -19.5 -107.5t-53.5 -73t-80.5 -42t-99.5 -13.5q-52 0 -98.5 13.5t-81.5 42t-55.5 74t-20.5 108.5q0 50 14.5 103
t40.5 95q4 6 15 3l108 -35q5 -2 5.5 -5.5t-1.5 -7.5q-14 -28 -26 -63t-12 -79q0 -35 10 -59t26.5 -39t37 -21.5t41.5 -6.5q51 0 80 28.5t29 90.5v300z" />
    <glyph glyph-name="aHehYeh.fina" unicode="&#x6c0;" horiz-adv-x="568" arabic-form="final" 
d="M340 438v43q0 10 10 10h121q10 0 10 -10v-307q0 -30 11.5 -41.5t36.5 -11.5h32q40 0 40 -61q0 -35 -9.5 -47.5t-30.5 -12.5h-104q-49 0 -76.5 15.5t-36.5 58.5q-23 -18 -52 -27t-61 -9q-39 0 -74.5 11t-62 34t-42 60t-15.5 90q0 60 17 99.5t45.5 63t65 33t74.5 9.5h101z
M256 159q39 0 61.5 21.5t22.5 67.5v69h-80q-38 0 -61 -18t-23 -66q0 -41 22.5 -57.5t57.5 -16.5zM187 616q-6 11 -10 24t-4 29q0 18 6.5 36t20 32.5t34 23t49.5 8.5q31 0 54.5 -11.5t36.5 -28.5q4 -5 0 -9l-30 -31q-6 -6 -10 -1q-11 11 -22 17t-25 6q-19 0 -31 -12t-12 -32
q0 -18 9.5 -31t19.5 -20h100q6 0 6 -7v-45q0 -7 -6 -7h-222q-6 0 -6 7v45q0 7 6 7h36z" />
    <glyph glyph-name="aHehGoal.fina" unicode="&#x6c1;" horiz-adv-x="536" arabic-form="final" 
d="M446 193q0 -35 11.5 -53.5t53.5 -18.5h25q21 0 30.5 -13.5t9.5 -48.5q0 -32 -10 -45.5t-30 -13.5h-87q-144 0 -144 141v153h-49q-45 0 -60 -24t-15 -81v-179q0 -10 -10 -10h-121q-10 0 -10 10v224q0 58 17.5 94.5t45.5 57t63 28t71 7.5h199q10 0 10 -10v-218z" />
    <glyph glyph-name="aHehGoal.init" unicode="&#x6c1;" horiz-adv-x="297" arabic-form="initial" 
d="M193 -170q-8 -1 -16.5 -1.5t-17.5 -0.5q-23 0 -46.5 5t-42.5 18t-31 36.5t-12 59.5q0 23 6 53h-33q-20 0 -30 7t-10 28q0 12 2.5 27t7 28t12 22t18.5 9h35q25 0 36.5 11.5t11.5 41.5v237q0 10 10 10h122q10 0 10 -10v-285q0 -57 -20 -87t-67 -37q-3 -15 -3 -28
q0 -46 58 -46q10 0 10 -10v-78q0 -8 -10 -10z" />
    <glyph glyph-name="aHehGoal.medi" unicode="&#x6c1;" horiz-adv-x="486" arabic-form="medial" 
d="M174 121q10 0 10 -10v-83q0 -26 3 -44t11 -29.5t22.5 -17t37.5 -5.5v39q0 39 11 67.5t30.5 46.5t46 27t57.5 9h83q40 0 40 -60q0 -35 -9.5 -48t-30.5 -13h-31q-32 0 -47 -15.5t-15 -55.5v-114q0 -10 -10 -10h-117q-106 0 -161.5 41.5t-55.5 119.5v34h-50q-20 0 -30 13
t-10 45q0 34 9.5 48.5t30.5 14.5h175z" />
    <glyph glyph-name="aHehDoachashmi.fina" unicode="&#x6be;" horiz-adv-x="715" arabic-form="final" 
d="M216 121v92q0 64 19.5 107.5t51 69.5t70.5 37t78 11q43 0 82.5 -10t69.5 -33.5t47.5 -62t17.5 -95.5q0 -35 -9 -67t-20 -49h93q21 0 30.5 -13.5t9.5 -47.5q0 -33 -10 -46.5t-30 -13.5h-94q10 -14 15.5 -31.5t5.5 -37.5q0 -39 -16 -67t-44.5 -46t-66.5 -26.5t-83 -8.5
q-46 0 -85.5 8t-69 26.5t-46 49.5t-16.5 76v57h-26q-23 0 -29.5 -6.5t-6.5 -27.5v-44q0 -10 -10 -10h-122q-10 0 -10 10v110q0 47 25 68t69 21h110zM435 317q-36 0 -58 -25t-22 -76v-97h84q39 0 57 28t18 72q0 49 -21 73.5t-58 24.5zM433 -103q39 0 55.5 14t16.5 39
q0 22 -12.5 38.5t-52.5 16.5h-85v-47q0 -61 78 -61z" />
    <glyph glyph-name="aHehDoachashmi.init" unicode="&#x6be;" horiz-adv-x="651" arabic-form="initial" 
d="M0 0q-20 0 -30 13.5t-10 45.5q0 33 9.5 47.5t30.5 14.5h98q-14 30 -14 70q0 41 13.5 70t35 47t49.5 26.5t58 8.5q75 0 118 -36.5t43 -115.5q0 -21 -5.5 -38.5t-12.5 -31.5q45 0 60 27.5t15 67.5q0 39 -12.5 67t-35 46t-54 26.5t-69.5 8.5q-34 0 -71.5 -5.5t-73.5 -16.5
q-4 -2 -10 -3t-8 5l-21 75q-2 6 -1.5 10.5t7.5 7.5q49 19 96.5 30t112.5 11q84 0 139.5 -22.5t88 -59.5t45.5 -83t13 -94q0 -56 -10 -97.5t-33.5 -68.5t-62 -40t-95.5 -13h-403zM241 258q-28 0 -43.5 -18.5t-15.5 -52.5q0 -35 14 -51.5t39 -18.5h11q26 2 39 18.5t13 51.5
q0 34 -14.5 52.5t-42.5 18.5z" />
    <glyph glyph-name="aHehDoachashmi.medi" unicode="&#x6be;" horiz-adv-x="584" arabic-form="medial" 
d="M-40 59q0 62 40 62h85v96q0 64 19 107t49.5 68t69 35.5t77.5 10.5q45 0 85 -10t70 -33t48 -61t18 -93q0 -35 -9 -69t-20 -51h93q21 0 30.5 -13.5t9.5 -47.5t-10 -47t-30 -13h-94q10 -14 15.5 -32.5t5.5 -38.5q0 -39 -16 -67t-44.5 -45.5t-66.5 -25.5t-83 -8
q-46 0 -85.5 7.5t-69 26t-46 49t-16.5 75.5v59h-85q-40 0 -40 59zM301 317q-35 0 -56 -22.5t-21 -69.5v-106h84q39 0 57 30t18 74q0 48 -21.5 71t-60.5 23zM302 -101q39 0 55.5 13.5t16.5 38.5q0 26 -15.5 41.5t-65.5 15.5h-69v-49q0 -32 19 -46t59 -14z" />
    <glyph glyph-name="aYehBarri.fina" unicode="&#x6d2;" horiz-adv-x="349" arabic-form="final" 
d="M166 -45q0 -24 17 -31.5t64 -7.5h324q8 0 9 -12t1 -22v-77q0 -10 -10 -10h-370q-49 0 -83 11.5t-55 32t-30.5 49t-9.5 63.5q0 42 13.5 73.5t37.5 53t57 32.5t73 11h145q20 0 30 -12.5t10 -47.5t-9.5 -48t-30.5 -13h-129q-31 0 -42.5 -11.5t-11.5 -33.5z" />
    <glyph glyph-name="aYehBarriHamzaabove.fina" unicode="&#x6d3;" horiz-adv-x="349" arabic-form="final" 
d="M90 237q-6 11 -10 24t-4 29q0 18 6.5 36t19.5 32.5t33.5 23t49.5 8.5q32 0 55.5 -11.5t36.5 -28.5q3 -5 -1 -9l-30 -31q-5 -6 -10 -1q-21 23 -47 23q-19 0 -31 -12t-12 -32q0 -18 9.5 -31t20.5 -20h100q6 0 6 -7v-45q0 -7 -6 -7h-223q-6 0 -6 7v45q0 7 6 7h37zM166 -45
q0 -24 17 -31.5t64 -7.5h324q8 0 9 -12t1 -22v-77q0 -10 -10 -10h-370q-49 0 -83 11.5t-55 32t-30.5 49t-9.5 63.5q0 42 13.5 73.5t37.5 53t57 32.5t73 11h145q20 0 30 -12.5t10 -47.5t-9.5 -48t-30.5 -13h-129q-31 0 -42.5 -11.5t-11.5 -33.5z" />
    <glyph glyph-name="aAlifMaksura.init" unicode="&#x649;" horiz-adv-x="285" arabic-form="initial" 
d="M0 0q-20 0 -30 7t-10 28q0 12 2.5 27t7 28t12 22t18.5 9h35q25 0 36.5 11.5t11.5 41.5v237q0 10 10 10h122q10 0 10 -10v-285q0 -65 -27 -95.5t-90 -30.5h-108z" />
    <glyph glyph-name="aAlifMaksura.medi" unicode="&#x649;" horiz-adv-x="323" arabic-form="medial" 
d="M211 50q-17 -31 -47 -40.5t-84 -9.5h-80q-20 0 -30 6.5t-10 28.5q0 13 2 28t7 28t13 21.5t20 8.5h33q31 0 39.5 17.5t8.5 62.5v210q0 8 14.5 9t25.5 1h92q10 0 10 -10v-236q2 -25 21.5 -39.5t54.5 -14.5h23q20 0 30 -14t10 -46q0 -61 -40 -61q-38 0 -66 9t-47 41z" />
    <glyph glyph-name="aYehFarsi.fina" unicode="&#x6cc;" horiz-adv-x="790" arabic-form="final" 
d="M495 -82q30 0 50 3.5t31 9.5t15.5 14.5t4.5 17.5q0 15 -10 26.5t-32 23t-57.5 25t-86.5 32.5q-9 3 -6 12l32 99q3 10 12 7q32 -12 60 -24t55 -21.5t53.5 -15.5t55.5 -6h118q40 0 40 -59q0 -33 -9.5 -47.5t-30.5 -14.5h-65q5 -8 11 -24t6 -36q0 -63 -50.5 -104t-159.5 -41
h-223q-71 0 -122.5 16t-85 45.5t-49.5 71.5t-16 94q0 56 19.5 109.5t44.5 91.5q5 9 15 3l102 -51q8 -5 3 -13q-17 -28 -29 -61t-12 -66q0 -35 13.5 -58t34.5 -36t47.5 -18t52.5 -5h168z" />
    <glyph glyph-name="aYehFarsi.init" unicode="&#x6cc;" horiz-adv-x="319" arabic-form="initial" 
d="M0 0q-20 0 -30 12.5t-10 44.5q0 64 40 64h62q25 0 36.5 11.5t11.5 41.5v237q0 10 10 10h121q10 0 10 -10v-285q0 -65 -27 -95.5t-90 -30.5h-134zM24 -205q-10 0 -10 10v98q0 10 10 10h100q10 0 10 -10v-98q0 -10 -10 -10h-100zM178 -205q-10 0 -10 10v98q0 10 10 10h101
q10 0 10 -10v-98q0 -10 -10 -10h-101z" />
    <glyph glyph-name="aYehFarsi.medi" unicode="&#x6cc;" horiz-adv-x="353" arabic-form="medial" 
d="M54 -205q-10 0 -10 10v98q0 10 10 10h100q10 0 10 -10v-98q0 -10 -10 -10h-100zM208 -205q-10 0 -10 10v98q0 10 10 10h101q10 0 10 -10v-98q0 -10 -10 -10h-101zM113 411q0 10 10 10h121q10 0 10 -10v-236q2 -25 21.5 -39.5t54.5 -14.5h23q20 0 30 -14t10 -46
q0 -61 -40 -61q-38 0 -66 9t-47 41q-16 -32 -47.5 -41t-86.5 -9h-103q-20 0 -30 12.5t-10 46.5t9.5 48t30.5 14h62q32 0 40 18.5t8 63.5v208z" />
    <glyph glyph-name="aShadda_aDammatan" unicode="&#xfc5e;" horiz-adv-x="0" arabic-form="isolated" 
d="M-128 901q0 10 10 10h22q10 0 10 -10v-74q0 -40 33 -40t33 36v78q0 10 10 10h22q10 0 10 -10v-78q0 -36 33 -36t33 40v74q0 10 10 10h22q10 0 10 -10v-71q0 -35 -18 -59t-57 -24q-37 0 -56 22q-19 -22 -53 -22q-39 0 -56.5 24t-17.5 59v71zM-148 1085q-10 0 -10 10v18
q0 10 10 10h9q33 0 55.5 -21.5t22.5 -68.5q0 -24 14 -29.5t42 -5.5q38 0 55 13t22 24h-29q-35 0 -55 18.5t-20 50.5t22 54.5t54 22.5t54.5 -22t22.5 -71q0 -37 -9.5 -61.5t-26.5 -39.5t-40 -21t-50 -6q-20 0 -38 2.5t-31 10t-20.5 22t-7.5 38.5q0 27 -9 39.5t-24 12.5h-13z
M82 1071v16q0 26 -10.5 40t-26.5 14q-19 0 -27.5 -12t-8.5 -26q0 -9 4.5 -15t10.5 -9.5t13 -5t12 -1.5z" />
    <glyph glyph-name="aShadda_aKasratan" unicode="&#xfc5f;" horiz-adv-x="0" arabic-form="isolated" 
d="M-127 1062q0 10 10 10h22q10 0 10 -10v-74q0 -40 33 -40t33 36v78q0 10 10 10h22q10 0 10 -10v-78q0 -36 33 -36t33 40v74q0 10 10 10h22q10 0 10 -10v-71q0 -35 -18 -59t-57 -24q-37 0 -56 22q-19 -22 -53 -22q-39 0 -56.5 24t-17.5 59v71zM-125 819q-10 0 -10 10v21
q0 10 10 10h254q10 0 10 -10v-21q0 -10 -10 -10h-254zM-125 750q-10 0 -10 10v20q0 10 10 10h254q10 0 10 -10v-20q0 -10 -10 -10h-254z" />
    <glyph glyph-name="aShadda_aFatha" unicode="&#xfc60;" horiz-adv-x="0" arabic-form="isolated" 
d="M-131 965q-10 0 -10 10v20q0 10 10 10h254q10 0 10 -10v-20q0 -10 -10 -10h-254zM-127 901q0 10 10 10h22q10 0 10 -10v-74q0 -40 33 -40t33 36v78q0 10 10 10h22q10 0 10 -10v-78q0 -36 33 -36t33 40v74q0 10 10 10h22q10 0 10 -10v-71q0 -35 -18 -59t-57 -24
q-37 0 -56 22q-19 -22 -53 -22q-39 0 -56.5 24t-17.5 59v71z" />
    <glyph glyph-name="aShadda_aDamma" unicode="&#xfc61;" horiz-adv-x="0" arabic-form="isolated" 
d="M42 1071v16q0 26 -10.5 40t-26.5 14q-19 0 -27.5 -12t-8.5 -26q0 -9 4.5 -15t10.5 -9.5t13 -5t12 -1.5zM-45 997q19 0 33 3.5t23 9t14 12t7 12.5h-28q-35 0 -55 18.5t-20 50.5t22 54.5t54 22.5t54 -22t22 -71q0 -37 -9.5 -61.5t-26 -39.5t-40 -21t-50.5 -6h-29
q-10 0 -10 10v18q0 10 10 10h29zM-127 901q0 10 10 10h22q10 0 10 -10v-74q0 -40 33 -40t33 36v78q0 10 10 10h22q10 0 10 -10v-78q0 -36 33 -36t33 40v74q0 10 10 10h22q10 0 10 -10v-71q0 -35 -18 -59t-57 -24q-37 0 -56 22q-19 -22 -53 -22q-39 0 -56.5 24t-17.5 59v71z
" />
    <glyph glyph-name="aShadda_aKasra" unicode="&#xfc62;" horiz-adv-x="0" arabic-form="isolated" 
d="M-126 750q-10 0 -10 10v20q0 10 10 10h254q10 0 10 -10v-20q0 -10 -10 -10h-254zM-128 997q0 10 10 10h22q10 0 10 -10v-74q0 -40 33 -40t33 36v78q0 10 10 10h22q10 0 10 -10v-78q0 -36 33 -36t33 40v74q0 10 10 10h22q10 0 10 -10v-71q0 -35 -18 -59t-57 -24
q-37 0 -56 22q-19 -22 -53 -22q-39 0 -56.5 24t-17.5 59v71z" />
    <glyph glyph-name="aShadda_aAlifabove" unicode="&#xfc63;" horiz-adv-x="0" arabic-form="isolated" 
d="M-127 901q0 10 10 10h22q10 0 10 -10v-74q0 -40 33 -40t33 36v78q0 10 10 10h22q10 0 10 -10v-78q0 -36 33 -36t33 40v74q0 10 10 10h22q10 0 10 -10v-71q0 -35 -18 -59t-57 -24q-37 0 -56 22q-19 -22 -53 -22q-39 0 -56.5 24t-17.5 59v71zM22 968q0 -10 -10 -10h-24
q-10 0 -10 10v124q0 10 10 10h24q10 0 10 -10v-124z" />
    <glyph glyph-name="aAllah" unicode="&#xfdf2;" horiz-adv-x="1451" arabic-form="isolated" 
d="M872 0q-35 0 -61.5 10t-43.5 40q-15 -29 -43.5 -39.5t-77.5 -10.5h-193q-49 0 -76.5 15.5t-36.5 58.5q-22 -18 -51 -27t-61 -9q-39 0 -74.5 11t-62.5 34t-42.5 60t-15.5 90q0 60 17.5 99.5t46 63t65 33t74.5 9.5h100v43q0 10 10 10h122q10 0 10 -10v-307
q0 -30 11.5 -41.5t36.5 -11.5h65q17 0 27 6t14.5 17.5t5.5 28.5t1 39v458q0 10 10 10h122q10 0 10 -10v-495q2 -26 21 -40t55 -14h58q25 0 36.5 11.5t11.5 41.5v496q0 10 10 10h122q10 0 10 -10v-544q0 -65 -27 -95.5t-90 -30.5h-116zM253 159q38 0 60.5 21.5t22.5 67.5v69
h-80q-38 0 -61 -18t-23 -66q0 -41 23 -57.5t58 -16.5zM1391 10q0 -10 -10 -10h-121q-10 0 -10 10v660q0 10 10 10h121q10 0 10 -10v-660z" />
    <glyph glyph-name="aAllahlong" unicode="&#xfdfa;" horiz-adv-x="1057" arabic-form="isolated" 
d="M1017 437q0 -14 -16 -39q-15 -24 -31 -31q-47 -21 -116 -21h-23t-25 2q-24 -47 -38 -47q-4 0 -4 6q0 16 22 47q-43 17 -48 26q-40 -26 -50 -26q8 -141 25 -176q19 -38 87 -39q-22 17 -22 44q0 33 32 76q24 32 61 32q28 0 53 -17q24 -17 24 -31q-26 9 -52 9q-35 0 -65 -14
q-26 -14 -26 -27q0 -14 25 -39q24 -25 44 -29q19 2 68 18q25 8 42 14t25 11l-17 -37q-101 -53 -191 -53q-97 0 -119 73q-30 -65 -57 -65q-26 0 -67 44q-65 -56 -197 -56q-20 0 -37.5 1.5t-32.5 3.5q4 -32 9 -52q9 -36 23 -50q44 -44 176 -44q113 0 165 32q15 37 28 37
q4 0 4 -8q0 -14 -12 -44q6 -13 27 -13q26 0 49 12q21 66 33 66q4 0 4 -11q0 -19 -10 -43q30 -13 44 -13q1 0 4.5 0.5t3.5 3.5q0 4 -8 38l17 36q12 -36 12 -52q0 -67 -44 -67q-23 0 -48 19q-15 -26 -59 -26q-48 0 -48 26q-20 -14 -64 -24q-53 -11 -121 -11q-97 0 -143 28
q-59 34 -60 126l-22 -32q-16 -24 -26 -26q12 -21 12 -41q0 -26 -16 -42q-8 -8 -21 -8q-20 0 -61 23q-13 -30 -42 -47q-3 -2 -9.5 -3t-13.5 -1.5t-13 -1t-9 -1.5l-11 -4q-6 0 -6 5q0 4 24 15q31 12 39 19l34 26q-10 17 -10 40q0 21 18 41q18 21 34 21q2 0 6 -2q17 -10 29 -10
q18 0 36 23l23 42q-39 12 -55 27q-29 26 -41 85q-29 -50 -79 -50q-18 0 -39 8q-16 7 -16 12q0 25 43 58q20 16 41.5 26.5t43.5 17.5l-2 17l20 33q7 -108 21 -141q13 -31 56 -45l-13 132l19 43l17 -180q52 -6 95 -6q104 0 177 40q14 38 19 38q4 0 4 -9q0 -10 -4 -25
q37 -35 59 -35q26 0 42 43l-13 161q-73 0 -90 74q-7 -28 -14 -42q-11 -26 -27 -30l3 -3q35 0 52 -8t17 -30q0 -30 -25 -46q-86 -59 -160 -59q-46 0 -74 23.5t-28 65.5q0 32 16 67q-27 7 -38 43q-18 -51 -57 -51q-47 0 -47 77l-27 -24q-7 -7 -39 -7q-49 0 -49 18q0 11 13 31
q13 22 25 27l76 37v10l17 36l4 -120q1 -42 32 -42q15 0 29.5 10.5t16.5 22.5l-16 114l18 39l28 -161q9 -21 33 -21q23 0 23 13q0 22 -16 74l-10 32t-10 33l13 33q40 -124 40 -157q0 -21 -10 -44q-10 -28 -25 -28q-5 0 -9 3q-7 -20 -7 -39q0 -75 91 -75q71 0 142 48q2 2 2 3
q0 6 -38 12q-59 9 -61 10q-4 3 -4 8q0 10 17 32q60 25 64 53q1 3 1 14q0 49 -5 106.5t-15 124.5l17 56q24 -211 38 -256q18 -57 72 -66l-5 96l21 45l8 -140q28 10 60 36l30 -21q19 -12 39 -15q23 24 65 55q52 38 70 38t41 -14q26 -15 26 -33zM1008 2q0 -50 -39 -108
q-42 -64 -89 -64q-23 0 -59 16q-37 16 -37 23q0 4 5 4q6 0 27 -7q8 -3 18.5 -5.5t18.5 -2.5q68 0 138 106l-7 22q-18 -26 -37 -26q-15 0 -25.5 14t-10.5 31q0 21 15 50q16 31 28 31t32 -24q22 -26 22 -60zM970 639q-36 -13 -116 -51q-96 -47 -96 -61q0 -11 26 -25l-9 -24
q-33 10 -33 40t26 44q128 74 211 102zM476 447q-3 -66 -13 -73l-25 242l22 57zM602 37l-26 -31l-48 35l-28 -36l-50 36l29 35l47 -35l27 33zM989 420q0 7 -18 16q-17 9 -26 9q-21 0 -60 -24q-30 -19 -47 -34q4 -1 20 -1q39 0 82 8q49 10 49 26zM632 -121q0 -20 -2 -30
q-6 -13 -25 -13q-10 0 -14 4q-15 -16 -30 -16q-8 0 -16.5 8.5t-12.5 8.5q-8 0 -37 -17q-29 -18 -70 -18q-44 0 -44 8q0 7 32 7q17 0 29 0.5t17 1.5q15 3 35 16q29 19 40 19q8 0 19 -8t13 -8q15 0 18 17q1 13 11 13q4 0 4 -6t-1 -9q1 -4 11 -6q12 0 12 12q0 16 11 16z
M815 705l-6 -22l-195 -96l4 25zM169 263q-88 -34 -88 -52q0 -10 31 -10q33 0 59 24zM324 665q0 -32 -21 -32q-13 0 -21 8q-18 -15 -30 -15q-21 0 -21 27q0 19 3 27l6 6q0 -37 17 -37q12 0 19 16l-2 23l9 14l4 -30q1 -16 15 -16q11 0 11 12q0 1 -0.5 4.5t-2.5 20.5l7 10
q7 -18 7 -38zM189 487q-10 -5 -20 -9t-21 -8q-34 -17 -34 -25q0 -10 25 -10q29 0 51 13zM214 -39q0 8 -7.5 18.5t-16.5 16.5q-19 14 -34 14q-14 0 -14 -12q0 -13 26 -27q24 -15 39 -15q7 0 7 5zM979 10q-6 32 -26 32q-16 0 -20 -25q4 -18 31 -18q13 0 15 11z" />
    <glyph glyph-name="aAlifMadda.fina" unicode="&#x622;" horiz-adv-x="276" arabic-form="final" 
d="M-61 768q10 40 32.5 60t54.5 20q23 0 47 -8.5t48 -18.5t46.5 -18.5t43.5 -8.5q15 0 20.5 7.5t5.5 26.5q0 10 10 10h53q10 0 10 -10q0 -48 -20 -76.5t-65 -28.5q-28 0 -54 8t-48.5 17l-42.5 17t-36 8q-10 0 -18.5 -5.5t-14.5 -22.5q-3 -10 -13 -7l-52 17q-10 3 -7 13z
M60 670q0 10 10 10h121q10 0 10 -10v-496q0 -30 11.5 -41.5t36.5 -11.5h27q20 0 30 -14.5t10 -48.5q0 -36 -9.5 -47t-30.5 -11h-99q-63 0 -90 30.5t-27 95.5v544z" />
    <glyph glyph-name="aAlifHamza.fina" unicode="&#x623;" horiz-adv-x="276" arabic-form="final" 
d="M60 670q0 10 10 10h121q10 0 10 -10v-496q0 -30 11.5 -41.5t36.5 -11.5h27q20 0 30 -14.5t10 -48.5q0 -36 -9.5 -47t-30.5 -11h-99q-63 0 -90 30.5t-27 95.5v544zM55 789q-6 11 -10 24t-4 29q0 18 6.5 36t19.5 32.5t33.5 23t49.5 8.5q32 0 55.5 -11.5t36.5 -28.5
q3 -5 -1 -9l-30 -31q-5 -6 -10 -1q-21 23 -47 23q-19 0 -31 -12t-12 -32q0 -18 9.5 -31t20.5 -20h100q6 0 6 -7v-45q0 -7 -6 -7h-223q-6 0 -6 7v45q0 7 6 7h37z" />
    <glyph glyph-name="aWawHamza.fina" unicode="&#x624;" horiz-adv-x="550" arabic-form="final" 
d="M140 -205q-10 0 -10 10v101q0 10 10 10h115q21 0 37.5 3.5t27.5 12.5t17 25.5t6 42.5h-96q-98 0 -150.5 47t-52.5 161q0 64 18.5 108t49 71t70 39t81.5 12q44 0 84 -11t70 -36.5t47.5 -69t17.5 -107.5v-93h68q40 0 40 -60q0 -38 -9.5 -49.5t-30.5 -11.5h-68v-19
q0 -94 -47.5 -140t-148.5 -46h-146zM264 317q-40 0 -61.5 -28t-21.5 -76q0 -55 23.5 -73.5t61.5 -18.5h77v97q0 99 -79 99zM190 580q-6 10 -10 22t-4 28q0 18 6.5 35.5t20 31.5t35 22.5t51.5 8.5q32 0 57.5 -12t37.5 -29q4 -5 -1 -10l-32 -34q-4 -4 -9 2q-11 10 -22.5 16
t-27.5 6q-20 0 -31.5 -11t-11.5 -30q0 -18 9 -29t20 -17h105q6 0 6 -7v-47q0 -7 -6 -7h-228q-6 0 -6 7v47q0 7 6 7h35z" />
    <glyph glyph-name="aAlifHamzabelow.fina" unicode="&#x625;" horiz-adv-x="276" arabic-form="final" 
d="M60 670q0 10 10 10h121q10 0 10 -10v-496q0 -30 11.5 -41.5t36.5 -11.5h27q20 0 30 -14.5t10 -48.5q0 -36 -9.5 -47t-30.5 -11h-99q-63 0 -90 30.5t-27 95.5v544zM51 -223q-6 11 -10 24t-4 29q0 18 6.5 36t19.5 32.5t33.5 23t49.5 8.5q32 0 55.5 -11.5t36.5 -28.5
q3 -5 -1 -9l-30 -31q-5 -6 -10 -1q-21 23 -47 23q-19 0 -31 -12t-12 -32q0 -18 9.5 -31t20.5 -20h100q6 0 6 -7v-45q0 -7 -6 -7h-223q-6 0 -6 7v45q0 7 6 7h37z" />
    <glyph glyph-name="aYehHamza.fina" unicode="&#x626;" horiz-adv-x="790" arabic-form="final" 
d="M102 403q-6 10 -10 22t-4 28q0 18 6.5 35.5t20 31.5t35 22.5t51.5 8.5q32 0 57.5 -12t37.5 -29q4 -5 -1 -10l-32 -34q-4 -4 -9 2q-11 10 -22.5 16t-27.5 6q-20 0 -31.5 -11t-11.5 -30q0 -18 9 -29t20 -17h105q6 0 6 -7v-47q0 -7 -6 -7h-228q-6 0 -6 7v47q0 7 6 7h35z
M495 -82q30 0 50 3.5t31 9.5t15.5 14.5t4.5 17.5q0 15 -10 26.5t-32 23t-57.5 25t-86.5 32.5q-9 3 -6 12l32 99q3 10 12 7q32 -12 60 -24t55 -21.5t53.5 -15.5t55.5 -6h118q40 0 40 -59q0 -33 -9.5 -47.5t-30.5 -14.5h-65q5 -8 11 -24t6 -36q0 -63 -50.5 -104t-159.5 -41
h-223q-71 0 -122.5 16t-85 45.5t-49.5 71.5t-16 94q0 56 19.5 109.5t44.5 91.5q5 9 15 3l102 -51q8 -5 3 -13q-17 -28 -29 -61t-12 -66q0 -35 13.5 -58t34.5 -36t47.5 -18t52.5 -5h168z" />
    <glyph glyph-name="aYehHamza.init" unicode="&#x626;" horiz-adv-x="293" arabic-form="initial" 
d="M73 580q-6 10 -10 22t-4 28q0 18 6.5 35.5t20 31.5t35 22.5t51.5 8.5q32 0 57.5 -12t37.5 -29q4 -5 -1 -10l-32 -34q-4 -4 -9 2q-11 10 -22.5 16t-27.5 6q-20 0 -31.5 -11t-11.5 -30q0 -18 9 -29t20 -17h105q6 0 6 -7v-47q0 -7 -6 -7h-228q-6 0 -6 7v47q0 7 6 7h35zM3 0
q-20 0 -30 7t-10 28q0 12 2.5 27t7 28t12 22t18.5 9h35q25 0 36.5 11.5t11.5 41.5v237q0 10 10 10h122q10 0 10 -10v-285q0 -65 -27 -95.5t-90 -30.5h-108z" />
    <glyph glyph-name="aYehHamza.medi" unicode="&#x626;" horiz-adv-x="323" arabic-form="medial" 
d="M77 580q-6 10 -10 22t-4 28q0 18 6.5 35.5t20 31.5t35 22.5t51.5 8.5q32 0 57.5 -12t37.5 -29q4 -5 -1 -10l-32 -34q-4 -4 -9 2q-11 10 -22.5 16t-27.5 6q-20 0 -31.5 -11t-11.5 -30q0 -18 9 -29t20 -17h105q6 0 6 -7v-47q0 -7 -6 -7h-228q-6 0 -6 7v47q0 7 6 7h35z
M214 50q-17 -31 -47 -40.5t-84 -9.5h-80q-20 0 -30 6.5t-10 28.5q0 13 2 28t7 28t13 21.5t20 8.5h33q31 0 39.5 17.5t8.5 62.5v210q0 8 14.5 9t25.5 1h92q10 0 10 -10v-236q2 -25 21.5 -39.5t54.5 -14.5h23q20 0 30 -14t10 -46q0 -61 -40 -61q-38 0 -66 9t-47 41z" />
    <glyph glyph-name="aAlif.fina" unicode="&#x627;" horiz-adv-x="276" arabic-form="final" 
d="M60 670q0 10 10 10h121q10 0 10 -10v-496q0 -30 11.5 -41.5t36.5 -11.5h27q20 0 30 -14.5t10 -48.5q0 -36 -9.5 -47t-30.5 -11h-99q-63 0 -90 30.5t-27 95.5v544z" />
    <glyph glyph-name="aBeh.fina" unicode="&#x628;" horiz-adv-x="901" arabic-form="final" 
d="M664 411q0 10 10 10h122q10 0 10 -10v-238q2 -24 21.5 -38t54.5 -14h22q20 0 30 -14t10 -46q0 -61 -40 -61q-37 0 -65 9t-47 41q-15 -30 -44.5 -40t-82.5 -10h-497q-63 0 -90 30.5t-27 95.5v221q0 10 10 10h122q10 0 10 -10v-173q0 -30 11.5 -41.5t36.5 -11.5h374
q32 0 40.5 16t8.5 59v215zM366 -205q-10 0 -10 10v98q0 10 10 10h124q10 0 10 -10v-98q0 -10 -10 -10h-124z" />
    <glyph glyph-name="aBeh.init" unicode="&#x628;" horiz-adv-x="285" arabic-form="initial" 
d="M78 -204q-10 0 -10 10v98q0 10 10 10h124q10 0 10 -10v-98q0 -10 -10 -10h-124zM0 0q-20 0 -30 7t-10 28q0 12 2.5 27t7 28t12 22t18.5 9h35q25 0 36.5 11.5t11.5 41.5v237q0 10 10 10h122q10 0 10 -10v-285q0 -65 -27 -95.5t-90 -30.5h-108z" />
    <glyph glyph-name="aBeh.medi" unicode="&#x628;" horiz-adv-x="323" arabic-form="medial" 
d="M94 -204q-10 0 -10 10v98q0 10 10 10h124q10 0 10 -10v-98q0 -10 -10 -10h-124zM214 50q-17 -31 -47 -40.5t-84 -9.5h-80q-20 0 -30 6.5t-10 28.5q0 13 2 28t7 28t13 21.5t20 8.5h33q31 0 39.5 17.5t8.5 62.5v210q0 8 14.5 9t25.5 1h92q10 0 10 -10v-236
q2 -25 21.5 -39.5t54.5 -14.5h23q20 0 30 -14t10 -46q0 -61 -40 -61q-38 0 -66 9t-47 41z" />
    <glyph glyph-name="aTehMarbuta.fina" unicode="&#x629;" horiz-adv-x="568" arabic-form="final" 
d="M136 562q-10 0 -10 10v98q0 10 10 10h100q10 0 10 -10v-98q0 -10 -10 -10h-100zM290 562q-10 0 -10 10v98q0 10 10 10h101q10 0 10 -10v-98q0 -10 -10 -10h-101zM339 438v43q0 10 10 10h122q10 0 10 -10v-307q0 -30 11.5 -41.5t36.5 -11.5h31q40 0 40 -61
q0 -35 -9.5 -47.5t-30.5 -12.5h-104q-49 0 -76.5 15.5t-36.5 58.5q-22 -18 -51 -27t-61 -9q-39 0 -74.5 11t-62.5 34t-42.5 60t-15.5 90q0 60 17.5 99.5t46 63t65 33t74.5 9.5h100zM256 159q38 0 60.5 21.5t22.5 67.5v69h-80q-38 0 -61 -18t-23 -66q0 -41 23 -57.5t58 -16.5
z" />
    <glyph glyph-name="aTeh.fina" unicode="&#x62a;" horiz-adv-x="901" arabic-form="final" 
d="M300 463q-10 0 -10 10v98q0 10 10 10h100q10 0 10 -10v-98q0 -10 -10 -10h-100zM454 463q-10 0 -10 10v98q0 10 10 10h101q10 0 10 -10v-98q0 -10 -10 -10h-101zM664 411q0 10 10 10h122q10 0 10 -10v-238q2 -24 21.5 -38t54.5 -14h22q20 0 30 -14t10 -46q0 -61 -40 -61
q-37 0 -65 9t-47 41q-15 -30 -44.5 -40t-82.5 -10h-497q-63 0 -90 30.5t-27 95.5v221q0 10 10 10h122q10 0 10 -10v-173q0 -30 11.5 -41.5t36.5 -11.5h374q32 0 40.5 16t8.5 59v215z" />
    <glyph glyph-name="aTeh.init" unicode="&#x62a;" horiz-adv-x="319" arabic-form="initial" 
d="M46 522q-10 0 -10 10v98q0 10 10 10h100q10 0 10 -10v-98q0 -10 -10 -10h-100zM200 522q-10 0 -10 10v98q0 10 10 10h101q10 0 10 -10v-98q0 -10 -10 -10h-101zM0 0q-20 0 -30 12.5t-10 44.5q0 64 40 64h62q25 0 36.5 11.5t11.5 41.5v237q0 10 10 10h121q10 0 10 -10
v-285q0 -65 -27 -95.5t-90 -30.5h-134z" />
    <glyph glyph-name="aTeh.medi" unicode="&#x62a;" horiz-adv-x="353" arabic-form="medial" 
d="M55 522q-10 0 -10 10v98q0 10 10 10h100q10 0 10 -10v-98q0 -10 -10 -10h-100zM209 522q-10 0 -10 10v98q0 10 10 10h101q10 0 10 -10v-98q0 -10 -10 -10h-101zM113 411q0 10 10 10h121q10 0 10 -10v-236q2 -25 21.5 -39.5t54.5 -14.5h23q20 0 30 -14t10 -46
q0 -61 -40 -61q-38 0 -66 9t-47 41q-16 -32 -47.5 -41t-86.5 -9h-103q-20 0 -30 12.5t-10 46.5t9.5 48t30.5 14h62q32 0 40 18.5t8 63.5v208z" />
    <glyph glyph-name="aTheh.fina" unicode="&#x62b;" horiz-adv-x="901" arabic-form="final" 
d="M664 411q0 10 10 10h122q10 0 10 -10v-238q2 -24 21.5 -38t54.5 -14h22q20 0 30 -14t10 -46q0 -61 -40 -61q-37 0 -65 9t-47 41q-15 -30 -44.5 -40t-82.5 -10h-497q-63 0 -90 30.5t-27 95.5v221q0 10 10 10h122q10 0 10 -10v-173q0 -30 11.5 -41.5t36.5 -11.5h374
q32 0 40.5 16t8.5 59v215zM303 463q-10 0 -10 10v98q0 10 10 10h100q10 0 10 -10v-98q0 -10 -10 -10h-100zM457 463q-10 0 -10 10v98q0 10 10 10h101q10 0 10 -10v-98q0 -10 -10 -10h-101zM381 606q-10 0 -10 10v98q0 10 10 10h100q10 0 10 -10v-98q0 -10 -10 -10h-100z" />
    <glyph glyph-name="aTheh.init" unicode="&#x62b;" horiz-adv-x="319" arabic-form="initial" 
d="M0 0q-20 0 -30 12.5t-10 44.5q0 64 40 64h62q25 0 36.5 11.5t11.5 41.5v237q0 10 10 10h121q10 0 10 -10v-285q0 -65 -27 -95.5t-90 -30.5h-134zM45 522q-10 0 -10 10v98q0 10 10 10h100q10 0 10 -10v-98q0 -10 -10 -10h-100zM199 522q-10 0 -10 10v98q0 10 10 10h101
q10 0 10 -10v-98q0 -10 -10 -10h-101zM123 665q-10 0 -10 10v98q0 10 10 10h100q10 0 10 -10v-98q0 -10 -10 -10h-100z" />
    <glyph glyph-name="aTheh.medi" unicode="&#x62b;" horiz-adv-x="353" arabic-form="medial" 
d="M56 522q-10 0 -10 10v98q0 10 10 10h100q10 0 10 -10v-98q0 -10 -10 -10h-100zM210 522q-10 0 -10 10v98q0 10 10 10h101q10 0 10 -10v-98q0 -10 -10 -10h-101zM134 665q-10 0 -10 10v98q0 10 10 10h100q10 0 10 -10v-98q0 -10 -10 -10h-100zM113 411q0 10 10 10h121
q10 0 10 -10v-236q2 -25 21.5 -39.5t54.5 -14.5h23q20 0 30 -14t10 -46q0 -61 -40 -61q-38 0 -66 9t-47 41q-16 -32 -47.5 -41t-86.5 -9h-103q-20 0 -30 12.5t-10 46.5t9.5 48t30.5 14h62q32 0 40 18.5t8 63.5v208z" />
    <glyph glyph-name="aJim.fina" unicode="&#x62c;" horiz-adv-x="633" arabic-form="final" 
d="M219 0q-26 0 -38.5 -11t-12.5 -31q0 -23 13 -32.5t51 -9.5h55q10 0 10 -10v-101q0 -10 -10 -10h-72q-46 0 -81.5 8t-59.5 27.5t-36.5 51t-12.5 78.5t13.5 78t36.5 49.5t53.5 26t63.5 7.5h122q24 0 39 3.5t23.5 12t12 23t3.5 36.5q0 25 -5 47t-17 38.5t-31.5 26t-48.5 9.5
q-32 0 -57 -12.5t-46 -31.5q-7 -7 -14 -1l-59 71q-9 9 -3 15q35 35 79.5 57.5t108.5 22.5q66 0 111.5 -19t74 -52.5t41.5 -79t13 -98.5q0 -5 -0.5 -9t-0.5 -8q3 -23 22 -37t54 -14h23q20 0 30 -14t10 -46q0 -61 -40 -61q-42 0 -73 11.5t-51 49.5q-20 -36 -56.5 -48.5
t-86.5 -12.5h-151zM342 -202q-10 0 -10 10v98q0 10 10 10h109q10 0 10 -10v-98q0 -10 -10 -10h-109z" />
    <glyph glyph-name="aJim.init" unicode="&#x62c;" horiz-adv-x="520" arabic-form="initial" 
d="M0 0q-20 0 -30 13.5t-10 45.5q0 33 9.5 47.5t30.5 14.5h248q24 0 39 3.5t23.5 13.5t12 26.5t3.5 42.5q0 21 -5 40.5t-17 35t-31.5 25t-48.5 9.5q-32 0 -57 -12.5t-46 -31.5q-7 -7 -14 -1l-59 71q-9 9 -3 15q35 34 80 57t113 23q64 0 109 -19t73 -51t40.5 -75t12.5 -91
q0 -63 -11.5 -102t-33 -61.5t-53 -30.5t-71.5 -8h-304zM181 -203q-10 0 -10 10v98q0 10 10 10h124q10 0 10 -10v-98q0 -10 -10 -10h-124z" />
    <glyph glyph-name="aJim.medi" unicode="&#x62c;" horiz-adv-x="571" arabic-form="medial" 
d="M45 358q35 35 79.5 57.5t108.5 22.5q66 0 111.5 -19t74 -52.5t41.5 -79t13 -98.5v-16q3 -24 21.5 -38t53.5 -14h23q20 0 30 -14t10 -46q0 -61 -40 -61q-42 0 -73 11.5t-51 49.5q-20 -36 -56.5 -48.5t-86.5 -12.5h-304q-20 0 -30 13.5t-10 45.5t9 47t31 15h248
q24 0 39 3.5t23.5 12t12 23t3.5 36.5q0 25 -5 47t-17 38.5t-31.5 26t-48.5 9.5q-32 0 -57 -12.5t-46 -31.5q-7 -7 -14 -1l-59 71q-9 9 -3 15zM180 -203q-10 0 -10 10v98q0 10 10 10h124q10 0 10 -10v-98q0 -10 -10 -10h-124z" />
    <glyph glyph-name="aHah.fina" unicode="&#x62d;" horiz-adv-x="633" arabic-form="final" 
d="M216 0q-26 0 -37 -11t-11 -31q0 -23 13 -32.5t51 -9.5h88q10 0 10 -10v-101q0 -10 -10 -10h-105q-46 0 -81.5 8t-59.5 27.5t-36.5 51t-12.5 78.5t13.5 78t36.5 49.5t53.5 26t63.5 7.5h119q24 0 39 3.5t23.5 12t12 23t3.5 36.5q0 25 -5 47t-17 38.5t-31.5 26t-48.5 9.5
q-32 0 -57 -12.5t-46 -31.5q-7 -7 -14 -1l-59 71q-9 9 -3 15q35 35 79.5 57.5t108.5 22.5q66 0 111.5 -19t74 -52.5t41.5 -79t13 -98.5q0 -5 -0.5 -9t-0.5 -8q3 -23 22 -37t54 -14h23q20 0 30 -14t10 -46q0 -61 -40 -61q-42 0 -73 11.5t-51 49.5q-20 -36 -56.5 -48.5
t-86.5 -12.5h-151z" />
    <glyph glyph-name="aHah.init" unicode="&#x62d;" horiz-adv-x="520" arabic-form="initial" 
d="M0 0q-20 0 -30 13.5t-10 45.5q0 33 9.5 47.5t30.5 14.5h248q24 0 39 3.5t23.5 13.5t12 26.5t3.5 42.5q0 21 -5 40.5t-17 35t-31.5 25t-48.5 9.5q-32 0 -57 -12.5t-46 -31.5q-7 -7 -14 -1l-59 71q-9 9 -3 15q35 34 80 57t113 23q64 0 109 -19t73 -51t40.5 -75t12.5 -91
q0 -63 -11.5 -102t-33 -61.5t-53 -30.5t-71.5 -8h-304z" />
    <glyph glyph-name="aHah.medi" unicode="&#x62d;" horiz-adv-x="571" arabic-form="medial" 
d="M45 358q35 35 79.5 57.5t108.5 22.5q66 0 111.5 -19t74 -52.5t41.5 -79t13 -98.5v-16q3 -24 21.5 -38t53.5 -14h23q20 0 30 -14t10 -46q0 -61 -40 -61q-42 0 -73 11.5t-51 49.5q-20 -36 -56.5 -48.5t-86.5 -12.5h-304q-20 0 -30 13.5t-10 45.5t9 47t31 15h248
q24 0 39 3.5t23.5 12t12 23t3.5 36.5q0 25 -5 47t-17 38.5t-31.5 26t-48.5 9.5q-32 0 -57 -12.5t-46 -31.5q-7 -7 -14 -1l-59 71q-9 9 -3 15z" />
    <glyph glyph-name="aKhah.fina" unicode="&#x62e;" horiz-adv-x="633" arabic-form="final" 
d="M246 522q-10 0 -10 10v98q0 10 10 10h124q10 0 10 -10v-98q0 -10 -10 -10h-124zM219 0q-26 0 -37 -11t-11 -31q0 -23 13 -32.5t51 -9.5h88q10 0 10 -10v-101q0 -10 -10 -10h-105q-46 0 -81.5 8t-59.5 27.5t-36.5 51t-12.5 78.5t13.5 78t36.5 49.5t53.5 26t63.5 7.5h119
q24 0 39 3.5t23.5 12t12 23t3.5 36.5q0 25 -5 47t-17 38.5t-31.5 26t-48.5 9.5q-32 0 -57 -12.5t-46 -31.5q-7 -7 -14 -1l-59 71q-9 9 -3 15q35 35 79.5 57.5t108.5 22.5q66 0 111.5 -19t74 -52.5t41.5 -79t13 -98.5q0 -5 -0.5 -9t-0.5 -8q3 -23 22 -37t54 -14h23
q20 0 30 -14t10 -46q0 -61 -40 -61q-42 0 -73 11.5t-51 49.5q-20 -36 -56.5 -48.5t-86.5 -12.5h-151z" />
    <glyph glyph-name="aKhah.init" unicode="&#x62e;" horiz-adv-x="520" arabic-form="initial" 
d="M176 521q-10 0 -10 10v98q0 10 10 10h124q10 0 10 -10v-98q0 -10 -10 -10h-124zM0 0q-20 0 -30 13.5t-10 45.5q0 33 9.5 47.5t30.5 14.5h248q24 0 39 3.5t23.5 13.5t12 26.5t3.5 42.5q0 21 -5 40.5t-17 35t-31.5 25t-48.5 9.5q-32 0 -57 -12.5t-46 -31.5q-7 -7 -14 -1
l-59 71q-9 9 -3 15q35 34 80 57t113 23q64 0 109 -19t73 -51t40.5 -75t12.5 -91q0 -63 -11.5 -102t-33 -61.5t-53 -30.5t-71.5 -8h-304z" />
    <glyph glyph-name="aKhah.medi" unicode="&#x62e;" horiz-adv-x="571" arabic-form="medial" 
d="M176 521q-10 0 -10 10v98q0 10 10 10h124q10 0 10 -10v-98q0 -10 -10 -10h-124zM45 358q35 35 79.5 57.5t108.5 22.5q66 0 111.5 -19t74 -52.5t41.5 -79t13 -98.5v-16q3 -24 21.5 -38t53.5 -14h23q20 0 30 -14t10 -46q0 -61 -40 -61q-42 0 -73 11.5t-51 49.5
q-20 -36 -56.5 -48.5t-86.5 -12.5h-304q-20 0 -30 13.5t-10 45.5t9 47t31 15h248q24 0 39 3.5t23.5 12t12 23t3.5 36.5q0 25 -5 47t-17 38.5t-31.5 26t-48.5 9.5q-32 0 -57 -12.5t-46 -31.5q-7 -7 -14 -1l-59 71q-9 9 -3 15z" />
    <glyph glyph-name="aDal.fina" unicode="&#x62f;" horiz-adv-x="544" arabic-form="final" 
d="M225 121q25 0 40 3.5t22.5 11.5t10 21t2.5 32v54q0 39 -22.5 56.5t-67.5 17.5h-115q-10 0 -10 10v101q0 10 10 10h157q93 0 143.5 -40.5t50.5 -139.5v-83q2 -25 21.5 -39.5t54.5 -14.5h22q20 0 30 -14t10 -46q0 -61 -40 -61q-41 0 -71.5 11t-49.5 46q-18 -32 -49.5 -44.5
t-78.5 -12.5h-242q-10 0 -10 10v101q0 10 10 10h172z" />
    <glyph glyph-name="aDhal.fina" unicode="&#x630;" horiz-adv-x="544" arabic-form="final" 
d="M152 522q-10 0 -10 10v98q0 10 10 10h124q10 0 10 -10v-98q0 -10 -10 -10h-124zM228 121q25 0 40 3.5t22.5 11.5t10 21t2.5 32v54q0 39 -22.5 56.5t-67.5 17.5h-115q-10 0 -10 10v101q0 10 10 10h157q93 0 143.5 -40.5t50.5 -139.5v-83q2 -25 21.5 -39.5t54.5 -14.5h22
q20 0 30 -14t10 -46q0 -61 -40 -61q-41 0 -71.5 11t-49.5 46q-18 -32 -49.5 -44.5t-78.5 -12.5h-242q-10 0 -10 10v101q0 10 10 10h172z" />
    <glyph glyph-name="aReh.fina" unicode="&#x631;" horiz-adv-x="350" arabic-form="final" 
d="M110 411q0 10 10 10h122q10 0 10 -10v-236q2 -25 21.5 -39.5t54.5 -14.5h22q20 0 30 -14t10 -46q0 -61 -40 -61q-33 0 -57 6.5t-41 27.5v-16q0 -114 -44 -168.5t-150 -54.5h-46q-10 0 -10 10v101q0 10 10 10h22q27 0 42 8.5t22.5 25t9.5 40.5t2 55v366z" />
    <glyph glyph-name="aZeh.fina" unicode="&#x632;" horiz-adv-x="350" arabic-form="final" 
d="M118 522q-10 0 -10 10v98q0 10 10 10h124q10 0 10 -10v-98q0 -10 -10 -10h-124zM110 411q0 10 10 10h122q10 0 10 -10v-236q2 -25 21.5 -39.5t54.5 -14.5h22q20 0 30 -14t10 -46q0 -61 -40 -61q-33 0 -57 6.5t-41 27.5v-16q0 -114 -44 -168.5t-150 -54.5h-46
q-10 0 -10 10v101q0 10 10 10h22q27 0 42 8.5t22.5 25t9.5 40.5t2 55v366z" />
    <glyph glyph-name="aSin.fina" unicode="&#x633;" horiz-adv-x="1161" arabic-form="final" 
d="M891 0q-39 0 -63.5 14.5t-37.5 38.5q-14 -31 -42.5 -42t-77.5 -11h-39q-32 0 -54 9t-36 26v-13q0 -63 -19.5 -107.5t-53.5 -73t-80.5 -42t-99.5 -13.5q-52 0 -98.5 13.5t-81.5 42t-55.5 74t-20.5 108.5q0 50 14.5 103t40.5 95q4 6 15 3l108 -35q5 -2 5.5 -5.5t-1.5 -7.5
q-14 -28 -26 -63t-12 -79q0 -35 10 -59t26.5 -39t37 -21.5t41.5 -6.5q51 0 80 28.5t29 90.5v311q0 10 10 10h122q10 0 10 -10v-164q0 -32 20 -43t44 -11q19 0 30.5 4t16.5 12t6.5 21.5t1.5 33.5v147q0 10 10 10h122q10 0 10 -10v-163q0 -34 20.5 -44.5t46.5 -10.5q19 0 29 4
t15 12.5t6 22t1 33.5v218q0 10 10 10h122q10 0 10 -10v-236q2 -25 21.5 -39.5t54.5 -14.5h22q20 0 30 -14t10 -46q0 -61 -40 -61q-38 0 -65.5 9.5t-46.5 40.5q-15 -29 -40 -39.5t-63 -10.5h-55z" />
    <glyph glyph-name="aSin.init" unicode="&#x633;" horiz-adv-x="833" arabic-form="initial" 
d="M343 0q-39 0 -64 14.5t-38 38.5q-14 -32 -42 -42.5t-79 -10.5h-120q-20 0 -30 11.5t-10 44.5q0 35 9.5 50t30.5 15h67q29 0 37 14.5t8 53.5v150q0 10 10 10h122q10 0 10 -10v-164q0 -32 20 -43t44 -11q19 0 30.5 4t16.5 12t6.5 21.5t1.5 33.5v147q0 10 10 10h122
q10 0 10 -10v-163q0 -34 20.5 -44.5t46.5 -10.5q19 0 29 4t15 12.5t6 22t1 33.5v218q0 10 10 10h122q10 0 10 -10v-285q0 -65 -27 -95.5t-90 -30.5h-55q-39 0 -63.5 14.5t-37.5 38.5q-14 -31 -42.5 -42t-77.5 -11h-39z" />
    <glyph glyph-name="aSin.medi" unicode="&#x633;" horiz-adv-x="874" arabic-form="medial" 
d="M603 0q-39 0 -63.5 14.5t-37.5 38.5q-14 -31 -42.5 -42t-77.5 -11h-39q-39 0 -64 14.5t-38 38.5q-14 -32 -42 -42.5t-79 -10.5h-120q-20 0 -30 11.5t-10 44.5q0 35 9.5 50t30.5 15h67q29 0 37 14.5t8 53.5v150q0 10 10 10h122q10 0 10 -10v-164q0 -32 20 -43t44 -11
q19 0 30.5 4t16.5 12t6.5 21.5t1.5 33.5v147q0 10 10 10h122q10 0 10 -10v-163q0 -34 20.5 -44.5t46.5 -10.5q19 0 29 4t15 12.5t6 22t1 33.5v218q0 10 10 10h122q10 0 10 -10v-236q2 -25 21.5 -39.5t54.5 -14.5h23q20 0 30 -14t10 -46q0 -61 -40 -61q-38 0 -66 9t-47 41
q-14 -29 -41 -39.5t-62 -10.5h-55z" />
    <glyph glyph-name="aShin.fina" unicode="&#x634;" horiz-adv-x="1161" arabic-form="final" 
d="M891 0q-39 0 -63.5 14.5t-37.5 38.5q-14 -31 -42.5 -42t-77.5 -11h-39q-32 0 -54 9t-36 26v-13q0 -63 -19.5 -107.5t-53.5 -73t-80.5 -42t-99.5 -13.5q-52 0 -98.5 13.5t-81.5 42t-55.5 74t-20.5 108.5q0 50 14.5 103t40.5 95q4 6 15 3l108 -35q5 -2 5.5 -5.5t-1.5 -7.5
q-14 -28 -26 -63t-12 -79q0 -35 10 -59t26.5 -39t37 -21.5t41.5 -6.5q51 0 80 28.5t29 90.5v311q0 10 10 10h122q10 0 10 -10v-164q0 -32 20 -43t44 -11q19 0 30.5 4t16.5 12t6.5 21.5t1.5 33.5v147q0 10 10 10h122q10 0 10 -10v-163q0 -34 20.5 -44.5t46.5 -10.5q19 0 29 4
t15 12.5t6 22t1 33.5v218q0 10 10 10h122q10 0 10 -10v-236q2 -25 21.5 -39.5t54.5 -14.5h22q20 0 30 -14t10 -46q0 -61 -40 -61q-38 0 -65.5 9.5t-46.5 40.5q-15 -29 -40 -39.5t-63 -10.5h-55zM602 522q-10 0 -10 10v98q0 10 10 10h100q10 0 10 -10v-98q0 -10 -10 -10h-100
zM756 522q-10 0 -10 10v98q0 10 10 10h101q10 0 10 -10v-98q0 -10 -10 -10h-101zM680 665q-10 0 -10 10v98q0 10 10 10h100q10 0 10 -10v-98q0 -10 -10 -10h-100z" />
    <glyph glyph-name="aShin.init" unicode="&#x634;" horiz-adv-x="833" arabic-form="initial" 
d="M343 0q-39 0 -64 14.5t-38 38.5q-14 -32 -42 -42.5t-79 -10.5h-120q-20 0 -30 11.5t-10 44.5q0 35 9.5 50t30.5 15h67q29 0 37 14.5t8 53.5v150q0 10 10 10h122q10 0 10 -10v-164q0 -32 20 -43t44 -11q19 0 30.5 4t16.5 12t6.5 21.5t1.5 33.5v147q0 10 10 10h122
q10 0 10 -10v-163q0 -34 20.5 -44.5t46.5 -10.5q19 0 29 4t15 12.5t6 22t1 33.5v218q0 10 10 10h122q10 0 10 -10v-285q0 -65 -27 -95.5t-90 -30.5h-55q-39 0 -63.5 14.5t-37.5 38.5q-14 -31 -42.5 -42t-77.5 -11h-39zM312 522q-10 0 -10 10v98q0 10 10 10h100q10 0 10 -10
v-98q0 -10 -10 -10h-100zM466 522q-10 0 -10 10v98q0 10 10 10h101q10 0 10 -10v-98q0 -10 -10 -10h-101zM390 665q-10 0 -10 10v98q0 10 10 10h100q10 0 10 -10v-98q0 -10 -10 -10h-100z" />
    <glyph glyph-name="aShin.medi" unicode="&#x634;" horiz-adv-x="874" arabic-form="medial" 
d="M606 0q-39 0 -63.5 14.5t-37.5 38.5q-14 -31 -42.5 -42t-77.5 -11h-39q-39 0 -64 14.5t-38 38.5q-14 -32 -42 -42.5t-79 -10.5h-120q-20 0 -30 11.5t-10 44.5q0 35 9.5 50t30.5 15h67q29 0 37 14.5t8 53.5v150q0 10 10 10h122q10 0 10 -10v-164q0 -32 20 -43t44 -11
q19 0 30.5 4t16.5 12t6.5 21.5t1.5 33.5v147q0 10 10 10h122q10 0 10 -10v-163q0 -34 20.5 -44.5t46.5 -10.5q19 0 29 4t15 12.5t6 22t1 33.5v218q0 10 10 10h122q10 0 10 -10v-236q2 -25 21.5 -39.5t54.5 -14.5h23q20 0 30 -14t10 -46q0 -61 -40 -61q-38 0 -66 9t-47 41
q-14 -29 -41 -39.5t-62 -10.5h-55zM316 522q-10 0 -10 10v98q0 10 10 10h100q10 0 10 -10v-98q0 -10 -10 -10h-100zM470 522q-10 0 -10 10v98q0 10 10 10h101q10 0 10 -10v-98q0 -10 -10 -10h-101zM394 665q-10 0 -10 10v98q0 10 10 10h100q10 0 10 -10v-98q0 -10 -10 -10
h-100z" />
    <glyph glyph-name="aSad.fina" unicode="&#x635;" horiz-adv-x="1101" arabic-form="final" 
d="M32 24q0 50 14.5 103t40.5 95q4 6 15 3l108 -35q5 -2 5.5 -5.5t-1.5 -7.5q-14 -28 -26 -63t-12 -79q0 -35 10 -59t26.5 -39t37 -21.5t41.5 -6.5q52 0 80.5 29t28.5 90v392q0 10 10 10h121q10 0 10 -10v-31q46 21 100 35t113 14q121 0 185 -58.5t64 -182.5
q0 -6 -0.5 -11.5t-0.5 -10.5q2 -25 21.5 -39.5t54.5 -14.5h22q20 0 30 -14t10 -46q0 -61 -40 -61q-44 0 -75 12.5t-49 50.5q-23 -39 -66 -51t-114 -12h-184q-19 0 -37 1t-35 3q-3 -58 -23.5 -99.5t-54 -67.5t-78.5 -38.5t-96 -12.5q-52 0 -98.5 13.5t-81.5 42t-55.5 74
t-20.5 108.5zM728 317q-51 0 -99.5 -14t-87.5 -31v-151h197q37 0 60 2t36 10.5t17.5 25t4.5 46.5q0 27 -6 48t-20.5 35.5t-39 21.5t-62.5 7z" />
    <glyph glyph-name="aSad.init" unicode="&#x635;" horiz-adv-x="731" arabic-form="initial" 
d="M81 419q0 10 10 10h121q10 0 10 -10v-30q46 20 100 34.5t113 14.5q122 0 185 -58t63 -182q0 -59 -11 -97.5t-35 -61t-62.5 -31t-93.5 -8.5h-186q-15 0 -32.5 0.5t-33.5 2.5t-28 6t-18 12q-19 -16 -46 -18.5t-65 -2.5h-72q-20 0 -30 12.5t-10 47.5q0 38 9 49.5t31 11.5h40
q28 0 34.5 16.5t6.5 55.5v226zM408 317q-50 0 -98.5 -14t-87.5 -31v-112q0 -11 -0.5 -20.5t-1.5 -18.5h198q37 0 60.5 2t36.5 10t17.5 25t4.5 47q0 27 -6 48t-20.5 35.5t-39.5 21.5t-63 7z" />
    <glyph glyph-name="aSad.medi" unicode="&#x635;" horiz-adv-x="781" arabic-form="medial" 
d="M81 419q0 10 10 10h121q10 0 10 -10v-30q46 20 100 34.5t113 14.5q122 0 185 -58t63 -183v-12t-1 -11q2 -24 22 -38.5t55 -14.5h22q20 0 30 -14t10 -46q0 -61 -40 -61q-43 0 -74.5 12.5t-49.5 50.5q-22 -38 -63.5 -50.5t-110.5 -12.5h-193q-15 0 -31.5 0.5t-31.5 2.5
t-27 6t-17 12q-17 -14 -39 -17.5t-55 -3.5h-89q-20 0 -30 12.5t-10 47.5q0 38 9 49.5t31 11.5h40q15 0 23.5 6.5t12 17.5t4.5 27t1 35v212zM408 317q-50 0 -98.5 -14t-87.5 -31v-112q0 -11 -0.5 -20.5t-1.5 -18.5h198q37 0 60.5 2t36.5 10t17.5 25t4.5 47q0 27 -6 48
t-20.5 35.5t-39.5 21.5t-63 7z" />
    <glyph glyph-name="aDad.fina" unicode="&#x636;" horiz-adv-x="1101" arabic-form="final" 
d="M671 522q-10 0 -10 10v98q0 10 10 10h124q10 0 10 -10v-98q0 -10 -10 -10h-124zM32 24q0 50 14.5 103t40.5 95q4 6 15 3l108 -35q5 -2 5.5 -5.5t-1.5 -7.5q-14 -28 -26 -63t-12 -79q0 -35 10 -59t26.5 -39t37 -21.5t41.5 -6.5q52 0 80.5 29t28.5 90v392q0 10 10 10h121
q10 0 10 -10v-31q46 21 100 35t113 14q121 0 185 -58.5t64 -182.5q0 -6 -0.5 -11.5t-0.5 -10.5q2 -25 21.5 -39.5t54.5 -14.5h22q20 0 30 -14t10 -46q0 -61 -40 -61q-44 0 -75 12.5t-49 50.5q-23 -39 -66 -51t-114 -12h-184q-19 0 -37 1t-35 3q-3 -58 -23.5 -99.5t-54 -67.5
t-78.5 -38.5t-96 -12.5q-52 0 -98.5 13.5t-81.5 42t-55.5 74t-20.5 108.5zM728 317q-51 0 -99.5 -14t-87.5 -31v-151h197q37 0 60 2t36 10.5t17.5 25t4.5 46.5q0 27 -6 48t-20.5 35.5t-39 21.5t-62.5 7z" />
    <glyph glyph-name="aDad.init" unicode="&#x636;" horiz-adv-x="731" arabic-form="initial" 
d="M355 522q-10 0 -10 10v98q0 10 10 10h124q10 0 10 -10v-98q0 -10 -10 -10h-124zM81 419q0 10 10 10h121q10 0 10 -10v-30q46 20 100 34.5t113 14.5q122 0 185 -58t63 -182q0 -59 -11 -97.5t-35 -61t-62.5 -31t-93.5 -8.5h-186q-15 0 -32.5 0.5t-33.5 2.5t-28 6t-18 12
q-19 -16 -46 -18.5t-65 -2.5h-72q-20 0 -30 12.5t-10 47.5q0 38 9 49.5t31 11.5h40q28 0 34.5 16.5t6.5 55.5v226zM408 317q-50 0 -98.5 -14t-87.5 -31v-112q0 -11 -0.5 -20.5t-1.5 -18.5h198q37 0 60.5 2t36.5 10t17.5 25t4.5 47q0 27 -6 48t-20.5 35.5t-39.5 21.5t-63 7z
" />
    <glyph glyph-name="aDad.medi" unicode="&#x636;" horiz-adv-x="781" arabic-form="medial" 
d="M358 522q-10 0 -10 10v98q0 10 10 10h124q10 0 10 -10v-98q0 -10 -10 -10h-124zM84 419q0 10 10 10h121q10 0 10 -10v-30q46 20 100 34.5t113 14.5q122 0 185 -58t63 -183v-12t-1 -11q2 -24 22 -38.5t55 -14.5h22q20 0 30 -14t10 -46q0 -61 -40 -61q-43 0 -74.5 12.5
t-49.5 50.5q-22 -38 -63.5 -50.5t-110.5 -12.5h-193q-15 0 -31.5 0.5t-31.5 2.5t-27 6t-17 12q-17 -14 -39 -17.5t-55 -3.5h-89q-20 0 -30 12.5t-10 47.5q0 38 9 49.5t31 11.5h40q15 0 23.5 6.5t12 17.5t4.5 27t1 35v212zM411 317q-50 0 -98.5 -14t-87.5 -31v-112
q0 -11 -0.5 -20.5t-1.5 -18.5h198q37 0 60.5 2t36.5 10t17.5 25t4.5 47q0 27 -6 48t-20.5 35.5t-39.5 21.5t-63 7z" />
    <glyph glyph-name="aTah.fina" unicode="&#x637;" horiz-adv-x="808" arabic-form="final" 
d="M210 21q-19 -13 -49 -17t-67 -4h-66q-10 0 -10 10v101q0 10 10 10h39q14 0 22.5 7.5t12.5 20.5t5 31t1 39v451q0 10 10 10h121q10 0 10 -10v-281q46 20 100 34.5t113 14.5q122 0 185 -58t63 -183v-22q2 -26 21 -40t55 -14h22q20 0 30 -14t10 -46q0 -61 -40 -61
q-43 0 -74.5 12.5t-49.5 50.5q-23 -39 -65.5 -51t-112.5 -12h-240q-41 0 -56 21zM435 317q-50 0 -98.5 -14t-87.5 -31v-112q0 -11 -0.5 -20.5t-1.5 -18.5h198q37 0 60.5 2t36.5 10t17.5 25t4.5 47q0 27 -6 48t-20.5 35.5t-39.5 21.5t-63 7z" />
    <glyph glyph-name="aTah.init" unicode="&#x637;" horiz-adv-x="743" arabic-form="initial" 
d="M94 670q2 10 10 10h121q10 0 10 -10v-281q45 20 99 34.5t113 14.5q122 0 185.5 -58t63.5 -182q0 -60 -11 -98.5t-36 -60.5t-64.5 -30.5t-96.5 -8.5h-236q-40 0 -57 21q-17 -15 -42 -18t-62 -3h-91q-20 0 -30 12.5t-10 47.5q0 38 9.5 49.5t30.5 11.5h43q18 0 28 8t15.5 22
t6.5 32.5t1 39.5v447zM421 317q-51 0 -99.5 -14t-86.5 -31v-112q0 -21 -3 -39h198q37 0 60.5 2t36.5 10t17.5 25t4.5 47q0 27 -6 48t-20.5 35.5t-39 21.5t-62.5 7z" />
    <glyph glyph-name="aTah.medi" unicode="&#x637;" horiz-adv-x="794" arabic-form="medial" 
d="M43 121q18 0 28 8t15.5 22t6.5 32.5t1 39.5v447q2 10 10 10h121q10 0 10 -10v-281q45 20 99 34.5t113 14.5q121 0 185 -58.5t64 -182.5q0 -6 -0.5 -11.5t-0.5 -10.5q2 -25 21.5 -39.5t54.5 -14.5h23q20 0 30 -14t10 -46q0 -61 -40 -61q-43 0 -74.5 12.5t-50.5 50.5
q-23 -39 -65 -51t-113 -12h-239q-40 0 -57 21q-11 -13 -45.5 -17t-71.5 -4h-78q-20 0 -30 12.5t-10 47.5q0 38 9 49.5t31 11.5h43zM421 317q-51 0 -99.5 -14t-86.5 -31v-112q0 -21 -3 -39h198q37 0 60.5 2t36.5 10t17.5 25t4.5 47q0 27 -6 48t-20.5 35.5t-39 21.5t-62.5 7z
" />
    <glyph glyph-name="aZah.fina" unicode="&#x638;" horiz-adv-x="808" arabic-form="final" 
d="M405 522q-10 0 -10 10v98q0 10 10 10h124q10 0 10 -10v-98q0 -10 -10 -10h-124zM213 21q-19 -13 -49 -17t-67 -4h-66q-10 0 -10 10v101q0 10 10 10h39q14 0 22.5 7.5t12.5 20.5t5 31t1 39v451q0 10 10 10h121q10 0 10 -10v-281q46 20 100 34.5t113 14.5q122 0 185 -58
t63 -183v-22q2 -26 21 -40t55 -14h22q20 0 30 -14t10 -46q0 -61 -40 -61q-43 0 -74.5 12.5t-49.5 50.5q-23 -39 -65.5 -51t-112.5 -12h-240q-41 0 -56 21zM438 317q-50 0 -98.5 -14t-87.5 -31v-112q0 -11 -0.5 -20.5t-1.5 -18.5h198q37 0 60.5 2t36.5 10t17.5 25t4.5 47
q0 27 -6 48t-20.5 35.5t-39.5 21.5t-63 7z" />
    <glyph glyph-name="aZah.init" unicode="&#x638;" horiz-adv-x="743" arabic-form="initial" 
d="M392 522q-10 0 -10 10v98q0 10 10 10h124q10 0 10 -10v-98q0 -10 -10 -10h-124zM94 670q2 10 10 10h121q10 0 10 -10v-281q45 20 99 34.5t113 14.5q122 0 185.5 -58t63.5 -182q0 -60 -11 -98.5t-36 -60.5t-64.5 -30.5t-96.5 -8.5h-236q-40 0 -57 21q-17 -15 -42 -18
t-62 -3h-91q-20 0 -30 12.5t-10 47.5q0 38 9.5 49.5t30.5 11.5h43q18 0 28 8t15.5 22t6.5 32.5t1 39.5v447zM421 317q-51 0 -99.5 -14t-86.5 -31v-112q0 -21 -3 -39h198q37 0 60.5 2t36.5 10t17.5 25t4.5 47q0 27 -6 48t-20.5 35.5t-39 21.5t-62.5 7z" />
    <glyph glyph-name="aZah.medi" unicode="&#x638;" horiz-adv-x="794" arabic-form="medial" 
d="M392 522q-10 0 -10 10v98q0 10 10 10h124q10 0 10 -10v-98q0 -10 -10 -10h-124zM46 121q18 0 28 8t15.5 22t6.5 32.5t1 39.5v447q2 10 10 10h121q10 0 10 -10v-281q45 20 99 34.5t113 14.5q121 0 185 -58.5t64 -182.5q0 -6 -0.5 -11.5t-0.5 -10.5q2 -25 21.5 -39.5
t54.5 -14.5h23q20 0 30 -14t10 -46q0 -61 -40 -61q-43 0 -74.5 12.5t-50.5 50.5q-23 -39 -65 -51t-113 -12h-239q-40 0 -57 21q-11 -13 -45.5 -17t-71.5 -4h-78q-20 0 -30 12.5t-10 47.5q0 38 9 49.5t31 11.5h43zM424 317q-51 0 -99.5 -14t-86.5 -31v-112q0 -21 -3 -39h198
q37 0 60.5 2t36.5 10t17.5 25t4.5 47q0 27 -6 48t-20.5 35.5t-39 21.5t-62.5 7z" />
    <glyph glyph-name="aAyn.fina" unicode="&#x639;" horiz-adv-x="584" arabic-form="final" 
d="M309 145q33 20 55.5 49t22.5 61t-23.5 47t-65.5 15q-34 0 -60 -6.5t-35 -11.5q41 -28 68 -69.5t38 -84.5zM235 -205q-98 0 -152.5 33.5t-54.5 114.5q0 41 13.5 70t37 49.5t54 33t63.5 19.5q-37 95 -119 148q-9 6 -11.5 13.5t-2.5 24.5v65q0 12 19 24.5t51.5 23t75 17.5
t89.5 7q61 0 105.5 -11.5t73.5 -32.5t42.5 -49.5t13.5 -61.5q0 -27 -8.5 -50.5t-22 -44t-30 -37t-33.5 -28.5q9 -1 19 -1.5t19 -0.5h107q40 0 40 -59q0 -34 -9.5 -48t-30.5 -14h-158q-29 0 -62 7t-59 24q-27 -9 -51 -16t-42 -14.5t-29 -18t-11 -27.5q0 -22 18.5 -30.5
t69.5 -8.5h74q10 0 10 -10v-101q0 -10 -10 -10h-99z" />
    <glyph glyph-name="aAyn.init" unicode="&#x639;" horiz-adv-x="520" arabic-form="initial" 
d="M80 121q-16 20 -26.5 48.5t-10.5 65.5q0 40 13 76.5t40 64.5t69 45t99 17q72 0 121 -23t74 -53q6 -7 -2 -15l-63 -75q-8 -7 -15 0q-44 45 -99 45q-40 0 -65 -24t-25 -70q0 -23 7 -40.5t17 -30t20.5 -20t17.5 -11.5h218q10 0 10 -10v-101q0 -10 -10 -10h-470
q-20 0 -30 13.5t-10 45.5q0 34 9.5 48t30.5 14h80z" />
    <glyph glyph-name="aAyn.medi" unicode="&#x639;" horiz-adv-x="576" arabic-form="medial" 
d="M287 438q61 0 105.5 -11.5t73.5 -32.5t42.5 -49.5t13.5 -61.5q0 -27 -8.5 -51t-22.5 -44.5t-31.5 -37t-34.5 -28.5q11 -1 22.5 -1h23.5h105q20 0 29 -13.5t9 -45.5q0 -37 -10.5 -49.5t-27.5 -12.5h-159q-36 0 -68.5 6.5t-61.5 24.5q-33 -18 -70 -24.5t-66 -6.5h-151
q-20 0 -29 11t-9 47q0 28 7.5 45.5t30.5 17.5h105q17 0 36.5 1t37.5 6q-14 42 -45 75.5t-68 59.5q-8 6 -11 14.5t-3 23.5v65q0 13 21 25.5t54.5 23t75.5 17t84 6.5zM298 145q33 20 55.5 49t22.5 61t-23.5 47t-65.5 15q-34 0 -60 -6.5t-35 -11.5q41 -28 68 -69.5t38 -84.5z
" />
    <glyph glyph-name="aGhayn.fina" unicode="&#x63a;" horiz-adv-x="584" arabic-form="final" 
d="M248 522q-10 0 -10 10v98q0 10 10 10h124q10 0 10 -10v-98q0 -10 -10 -10h-124zM312 145q33 20 55.5 49t22.5 61t-23.5 47t-65.5 15q-34 0 -60 -6.5t-35 -11.5q41 -28 68 -69.5t38 -84.5zM238 -205q-98 0 -152.5 33.5t-54.5 114.5q0 41 13.5 70t37 49.5t54 33t63.5 19.5
q-37 95 -119 148q-9 6 -11.5 13.5t-2.5 24.5v65q0 12 19 24.5t51.5 23t75 17.5t89.5 7q61 0 105.5 -11.5t73.5 -32.5t42.5 -49.5t13.5 -61.5q0 -27 -8.5 -50.5t-22 -44t-30 -37t-33.5 -28.5q9 -1 19 -1.5t19 -0.5h107q40 0 40 -59q0 -34 -9.5 -48t-30.5 -14h-158
q-29 0 -62 7t-59 24q-27 -9 -51 -16t-42 -14.5t-29 -18t-11 -27.5q0 -22 18.5 -30.5t69.5 -8.5h74q10 0 10 -10v-101q0 -10 -10 -10h-99z" />
    <glyph glyph-name="aGhayn.init" unicode="&#x63a;" horiz-adv-x="520" arabic-form="initial" 
d="M199 522q-10 0 -10 10v98q0 10 10 10h124q10 0 10 -10v-98q0 -10 -10 -10h-124zM80 121q-16 20 -26.5 48.5t-10.5 65.5q0 40 13 76.5t40 64.5t69 45t99 17q72 0 121 -23t74 -53q6 -7 -2 -15l-63 -75q-8 -7 -15 0q-44 45 -99 45q-40 0 -65 -24t-25 -70q0 -23 7 -40.5
t17 -30t20.5 -20t17.5 -11.5h218q10 0 10 -10v-101q0 -10 -10 -10h-470q-20 0 -30 13.5t-10 45.5q0 34 9.5 48t30.5 14h80z" />
    <glyph glyph-name="aGhayn.medi" unicode="&#x63a;" horiz-adv-x="576" arabic-form="medial" 
d="M225 522q-10 0 -10 10v98q0 10 10 10h124q10 0 10 -10v-98q0 -10 -10 -10h-124zM287 438q61 0 105.5 -11.5t73.5 -32.5t42.5 -49.5t13.5 -61.5q0 -27 -8.5 -51t-22.5 -44.5t-31.5 -37t-34.5 -28.5q11 -1 22.5 -1h23.5h105q20 0 29 -13.5t9 -45.5q0 -37 -10.5 -49.5
t-27.5 -12.5h-159q-36 0 -68.5 6.5t-61.5 24.5q-33 -18 -70 -24.5t-66 -6.5h-151q-20 0 -29 11t-9 47q0 28 7.5 45.5t30.5 17.5h105q17 0 36.5 1t37.5 6q-14 42 -45 75.5t-68 59.5q-8 6 -11 14.5t-3 23.5v65q0 13 21 25.5t54.5 23t75.5 17t84 6.5zM298 145q33 20 55.5 49
t22.5 61t-23.5 47t-65.5 15q-34 0 -60 -6.5t-35 -11.5q41 -28 68 -69.5t38 -84.5z" />
    <glyph glyph-name="aFeh.fina" unicode="&#x641;" horiz-adv-x="973" arabic-form="final" 
d="M694 438q51 0 92 -11.5t70 -33.5t44.5 -54t15.5 -74q0 -46 -22 -83.5t-55 -61.5q8 1 16 1h16h102q20 0 30 -12.5t10 -47.5q0 -34 -9.5 -47.5t-30.5 -13.5h-124q-42 0 -83.5 4t-70.5 20q-18 -9 -40 -14t-44 -7t-42.5 -2.5t-35.5 -0.5h-368q-63 0 -90 30.5t-27 95.5v226
q0 10 10 10h122q10 0 10 -10v-178q0 -19 5 -29.5t14 -16t22.5 -6.5t31.5 -1h286q-33 23 -55 60.5t-22 83.5q0 42 15.5 74t44.5 54t70 33.5t92 11.5zM694 339q-31 0 -56 -20.5t-25 -64.5q0 -45 24 -72.5t57 -43.5q33 16 57 43.5t24 72.5q0 22 -7 38t-18 26.5t-25.5 15.5
t-30.5 5zM627 522q-10 0 -10 10v98q0 10 10 10h124q10 0 10 -10v-98q0 -10 -10 -10h-124z" />
    <glyph glyph-name="aFeh.init" unicode="&#x641;" horiz-adv-x="554" arabic-form="initial" 
d="M222 522q-10 0 -10 10v98q0 10 10 10h124q10 0 10 -10v-98q0 -10 -10 -10h-124zM3 0q-21 0 -30.5 12.5t-9.5 48.5q0 32 10 46t30 14h77q-16 33 -16 90q0 66 18.5 109.5t49.5 69.5t71 37t82 11q44 0 84 -11t70.5 -37t48.5 -69.5t18 -109.5q0 -61 -17 -101.5t-46.5 -65
t-70 -34.5t-87.5 -10h-282zM285 317q-82 0 -82 -98q0 -58 20.5 -80t61.5 -22t61.5 21.5t20.5 77.5q0 101 -82 101z" />
    <glyph glyph-name="aFeh.medi" unicode="&#x641;" horiz-adv-x="560" arabic-form="medial" 
d="M281 438q51 0 92 -11.5t70 -33t44.5 -53.5t15.5 -74q0 -47 -22 -84.5t-56 -61.5q8 1 16.5 1h16.5h102q20 0 30 -12.5t10 -47.5q0 -34 -9.5 -47.5t-30.5 -13.5h-149q-36 0 -68 3t-61 21q-33 -18 -70.5 -21t-66.5 -3h-145q-21 0 -30.5 14t-9.5 48q0 32 9.5 45.5t30.5 13.5
h136q-34 23 -55.5 60.5t-21.5 84.5q0 42 15.5 74t44.5 53.5t70 33t92 11.5zM281 339q-32 0 -56.5 -20t-24.5 -64q0 -46 24 -73.5t57 -43.5q33 16 57 43.5t24 73.5q0 44 -25 64t-56 20zM221 522q-10 0 -10 10v98q0 10 10 10h124q10 0 10 -10v-98q0 -10 -10 -10h-124z" />
    <glyph glyph-name="aQaf.fina" unicode="&#x642;" horiz-adv-x="838" arabic-form="final" 
d="M427 522q-10 0 -10 10v98q0 10 10 10h100q10 0 10 -10v-98q0 -10 -10 -10h-100zM581 522q-10 0 -10 10v98q0 10 10 10h101q10 0 10 -10v-98q0 -10 -10 -10h-101zM535 -82q30 0 50 3.5t31 9.5t15.5 15.5t4.5 21.5v32h-97q-98 0 -150.5 48.5t-52.5 162.5q0 64 18 107.5
t48.5 70t69.5 38t81 11.5q45 0 85 -11t70 -37t47.5 -69t17.5 -107v-93h68q20 0 30 -13t10 -48q0 -34 -9.5 -47t-30.5 -13h-68v-52q0 -72 -50.5 -112.5t-160.5 -40.5h-253q-71 0 -122.5 16t-85 45.5t-49.5 71.5t-16 94q0 56 19.5 109.5t44.5 91.5q5 9 15 3l102 -51
q8 -5 3 -13q-17 -28 -29 -61t-12 -66q0 -35 13.5 -58t34.5 -36t47.5 -18t52.5 -5h208zM554 317q-40 0 -60.5 -27t-20.5 -75q0 -55 23 -74.5t61 -19.5h77v96q0 100 -80 100z" />
    <glyph glyph-name="aQaf.init" unicode="&#x642;" horiz-adv-x="559" arabic-form="initial" 
d="M159 522q-10 0 -10 10v98q0 10 10 10h100q10 0 10 -10v-98q0 -10 -10 -10h-100zM313 522q-10 0 -10 10v98q0 10 10 10h101q10 0 10 -10v-98q0 -10 -10 -10h-101zM6 0q-21 0 -30.5 12.5t-9.5 48.5q0 32 10 46t30 14h77q-16 33 -16 90q0 66 18.5 109.5t49.5 69.5t71 37
t82 11q44 0 84 -11t70.5 -37t48.5 -69.5t18 -109.5q0 -61 -17 -101.5t-46.5 -65t-70 -34.5t-87.5 -10h-282zM288 317q-82 0 -82 -98q0 -58 20.5 -80t61.5 -22t61.5 21.5t20.5 77.5q0 101 -82 101z" />
    <glyph glyph-name="aQaf.medi" unicode="&#x642;" horiz-adv-x="560" arabic-form="medial" 
d="M281 438q51 0 92 -11.5t70 -33t44.5 -53.5t15.5 -74q0 -47 -22 -84.5t-56 -61.5q8 1 16.5 1h16.5h102q20 0 30 -12.5t10 -47.5q0 -34 -9.5 -47.5t-30.5 -13.5h-149q-36 0 -68 3t-61 21q-33 -18 -70.5 -21t-66.5 -3h-145q-21 0 -30.5 14t-9.5 48q0 32 9.5 45.5t30.5 13.5
h136q-34 23 -55.5 60.5t-21.5 84.5q0 42 15.5 74t44.5 53.5t70 33t92 11.5zM281 339q-32 0 -56.5 -20t-24.5 -64q0 -46 24 -73.5t57 -43.5q33 16 57 43.5t24 73.5q0 44 -25 64t-56 20zM156 522q-10 0 -10 10v98q0 10 10 10h100q10 0 10 -10v-98q0 -10 -10 -10h-100zM310 522
q-10 0 -10 10v98q0 10 10 10h101q10 0 10 -10v-98q0 -10 -10 -10h-101z" />
    <glyph glyph-name="aKaf.fina" unicode="&#x643;" horiz-adv-x="901" arabic-form="final" 
d="M661 670q0 10 10 10h122q10 0 10 -10v-495q2 -25 21.5 -39.5t54.5 -14.5h22q20 0 30 -14t10 -46q0 -61 -40 -61q-37 0 -65 9t-47 41q-16 -30 -46 -40t-84 -10h-494q-63 0 -90 30.5t-27 95.5v221q0 10 10 10h122q10 0 10 -10v-173q0 -19 4.5 -29.5t14 -16t23 -6.5t31.5 -1
h349q32 0 40.5 17.5t8.5 62.5v469zM440 453h17q36 0 51 -19t15 -57v-21q0 -39 -15 -53.5t-45 -14.5h-125q-10 0 -10 10v35q0 10 10 10h99q14 0 17.5 4.5t3.5 16.5q0 23 -6 28.5t-27 5.5h-56q-14 0 -14 14v30q0 7 4 11t6 7l74 88q5 5 9.5 4.5t6.5 -2.5q5 -4 12 -9t12.5 -10.5
t8 -11t-1.5 -11.5z" />
    <glyph glyph-name="aKaf.init" unicode="&#x643;" horiz-adv-x="495" arabic-form="initial" 
d="M233 429q52 -2 91.5 -11t66.5 -31.5t40.5 -60.5t13.5 -96v-59q0 -49 -9.5 -82t-28 -52.5t-47 -28t-66.5 -8.5h-294q-20 0 -30 14t-10 50q0 34 9.5 45.5t30.5 11.5h224q24 0 39 3t23 10.5t10.5 20.5t2.5 33v46q0 40 -21.5 58t-68.5 18h-150q-10 0 -10 10v82q0 7 8 15.5
t14 15.5l212 251q6 7 13 3l83 -70q8 -6 4 -14z" />
    <glyph glyph-name="aKaf.medi" unicode="&#x643;" horiz-adv-x="543" arabic-form="medial" 
d="M233 429q49 -2 88 -10t66.5 -28.5t42.5 -55.5t15 -90v-73q0 -24 20.5 -37.5t55.5 -13.5h22q20 0 30 -14t10 -46q0 -61 -40 -61q-42 0 -72 11t-49 46q-18 -32 -50 -44.5t-78 -12.5h-294q-20 0 -30 14t-10 50q0 34 9.5 45.5t30.5 11.5h224q24 0 39 3t23 10.5t10.5 20.5
t2.5 33v46q0 40 -21.5 58t-68.5 18h-150q-10 0 -10 10v82q0 7 7.5 15t12.5 14l214 253q6 7 13 3l83 -70q8 -6 4 -14z" />
    <glyph glyph-name="aLam.fina" unicode="&#x644;" horiz-adv-x="650" arabic-form="final" 
d="M551 22q0 -63 -19.5 -107.5t-53.5 -73t-80.5 -42t-99.5 -13.5q-52 0 -98.5 13.5t-81.5 42t-55.5 74t-20.5 108.5q0 50 14.5 101.5t40.5 96.5q4 6 15 3l108 -35q5 -2 5.5 -5.5t-1.5 -7.5q-14 -28 -26 -63t-12 -79q0 -35 10 -59t26.5 -39t37 -21.5t41.5 -6.5q51 0 80 29
t29 90v642q0 10 10 10h121q10 0 10 -10v-495q2 -25 21.5 -39.5t54.5 -14.5h23q20 0 30 -14t10 -46q0 -61 -40 -61q-32 0 -56 5.5t-43 25.5v-9z" />
    <glyph glyph-name="aLam.init" unicode="&#x644;" horiz-adv-x="285" arabic-form="initial" 
d="M0 0q-20 0 -30 7t-10 28q0 12 2.5 27t7 28t12 22t18.5 9h35q25 0 36.5 11.5t11.5 41.5v496q0 10 10 10h122q10 0 10 -10v-544q0 -65 -27 -95.5t-90 -30.5h-108z" />
    <glyph glyph-name="aLam.medi" unicode="&#x644;" horiz-adv-x="323" arabic-form="medial" 
d="M83 670q0 10 10 10h122q10 0 10 -10v-495q2 -26 21 -40t55 -14h23q20 0 30 -14t10 -46q0 -61 -40 -61q-38 0 -66 9t-47 41q-15 -29 -43.5 -39.5t-77.5 -10.5h-90q-20 0 -30 7t-10 28q0 12 2.5 27t7 28t12 22t18.5 9h35q17 0 27 6t14.5 17.5t5.5 28.5t1 39v458z" />
    <glyph glyph-name="aMim.fina" unicode="&#x645;" horiz-adv-x="671" arabic-form="final" 
d="M361 -7q-45 0 -82.5 11t-65.5 37q-7 -11 -15 -17t-15.5 -13.5t-12.5 -18t-5 -28.5v-169h-142v190q0 34 8 55.5t20.5 36t27 24t28 19t23 21t11.5 30.5q-1 9 -1 19v21q0 66 18 109.5t48.5 69.5t70.5 37t84 11t84 -11t70.5 -37t48.5 -69.5t18 -109.5q0 -7 -0.5 -13.5
t-0.5 -12.5q2 -33 19 -48.5t43 -15.5h28q20 0 30 -14t10 -46q0 -61 -40 -61q-18 0 -36.5 1.5t-36 7.5t-33.5 17.5t-29 31.5q-30 -36 -75.5 -50.5t-99.5 -14.5zM361 317q-82 0 -82 -101q0 -57 20.5 -79.5t61.5 -22.5q42 0 62 22.5t20 79.5q0 101 -82 101z" />
    <glyph glyph-name="aMim.init" unicode="&#x645;" horiz-adv-x="579" arabic-form="initial" 
d="M311 -7q-53 0 -97.5 13.5t-74.5 47.5q-14 -20 -32.5 -30.5t-37.5 -16t-37 -6.5t-32 -1q-20 0 -30 13t-10 46q0 35 9.5 48.5t30.5 13.5h29q22 0 41 19t21 71v20q0 59 18.5 99t49 64t70 34t82.5 10q44 0 84 -11t70.5 -37t48.5 -69.5t18 -109.5q0 -61 -17 -103t-46.5 -67.5
t-70 -36.5t-87.5 -11zM311 317q-83 0 -83 -101q0 -57 21 -79.5t62 -22.5q42 0 62 22.5t20 79.5q0 101 -82 101z" />
    <glyph glyph-name="aMim.medi" unicode="&#x645;" horiz-adv-x="621" arabic-form="medial" 
d="M311 -7q-53 0 -97.5 13.5t-74.5 47.5q-11 -18 -29 -29t-37.5 -16.5t-38.5 -7t-34 -1.5q-20 0 -30 13t-10 46q0 34 9 48t31 14h29q23 0 41.5 19t20.5 71v20q0 100 57 153.5t163 53.5q101 0 161 -56.5t60 -170.5q0 -7 -0.5 -13.5t-0.5 -12.5q2 -33 19 -48.5t43 -15.5h29
q20 0 30 -14t10 -46q0 -61 -40 -61q-18 0 -37 1.5t-37 7.5t-34 17.5t-28 31.5q-30 -36 -75.5 -50.5t-99.5 -14.5zM311 317q-82 0 -82 -101q0 -57 20.5 -79.5t61.5 -22.5q42 0 62 22.5t20 79.5q0 101 -82 101z" />
    <glyph glyph-name="aNun.fina" unicode="&#x646;" horiz-adv-x="646" arabic-form="final" 
d="M256 414q-10 0 -10 10v98q0 10 10 10h124q10 0 10 -10v-98q0 -10 -10 -10h-124zM410 328q0 10 10 10h121q10 0 10 -10v-153q2 -25 21.5 -39.5t54.5 -14.5h19q20 0 30 -14t10 -46q0 -61 -40 -61q-30 0 -53.5 5.5t-41.5 25.5v-9q0 -63 -19.5 -107.5t-53.5 -73t-80.5 -42
t-99.5 -13.5q-52 0 -98.5 13.5t-81.5 42t-55.5 74t-20.5 108.5q0 50 14.5 103t40.5 95q4 6 15 3l108 -35q5 -2 5.5 -5.5t-1.5 -7.5q-14 -28 -26 -63t-12 -79q0 -35 10 -59t26.5 -39t37 -21.5t41.5 -6.5q51 0 80 28.5t29 90.5v300z" />
    <glyph glyph-name="aNun.init" unicode="&#x646;" horiz-adv-x="278" arabic-form="initial" 
d="M95 522q-10 0 -10 10v98q0 10 10 10h124q10 0 10 -10v-98q0 -10 -10 -10h-124zM3 0q-20 0 -30 7t-10 28q0 12 2.5 27t7 28t12 22t18.5 9h35q25 0 36.5 11.5t11.5 41.5v237q0 10 10 10h122q10 0 10 -10v-285q0 -65 -27 -95.5t-90 -30.5h-108z" />
    <glyph glyph-name="aNun.medi" unicode="&#x646;" horiz-adv-x="323" arabic-form="medial" 
d="M95 522q-10 0 -10 10v98q0 10 10 10h124q10 0 10 -10v-98q0 -10 -10 -10h-124zM214 50q-17 -31 -47 -40.5t-84 -9.5h-80q-20 0 -30 6.5t-10 28.5q0 13 2 28t7 28t13 21.5t20 8.5h33q31 0 39.5 17.5t8.5 62.5v210q0 8 14.5 9t25.5 1h92q10 0 10 -10v-236q2 -25 21.5 -39.5
t54.5 -14.5h23q20 0 30 -14t10 -46q0 -61 -40 -61q-38 0 -66 9t-47 41z" />
    <glyph glyph-name="aHeh.isol" unicode="&#x647;" horiz-adv-x="726" arabic-form="isolated" 
d="M316 258q-28 0 -43.5 -18.5t-15.5 -52.5q0 -35 14 -51.5t39 -18.5h11q26 2 39 18.5t13 51.5q0 34 -14.5 52.5t-42.5 18.5zM173 121q-14 30 -14 70q0 41 13.5 70t35 47t49.5 26.5t58 8.5q75 0 118 -36.5t43 -115.5q0 -21 -5.5 -38.5t-12.5 -31.5q45 0 60 27.5t15 67.5
q0 39 -12.5 67t-35 46t-54 26.5t-69.5 8.5q-34 0 -71.5 -5.5t-73.5 -16.5q-4 -2 -10 -3t-8 5l-21 75q-2 6 -1.5 10.5t7.5 7.5q49 19 96.5 30t112.5 11q84 0 139.5 -22.5t88 -59.5t45.5 -83t13 -94q0 -56 -10 -97.5t-33.5 -68.5t-62 -40t-95.5 -13h-288q-23 0 -29.5 -6.5
t-6.5 -27.5v-44q0 -10 -10 -10h-122q-10 0 -10 10v110q0 47 25 68t69 21h67z" />
    <glyph glyph-name="aHeh.fina" unicode="&#x647;" horiz-adv-x="557" arabic-form="final" 
d="M336 438v43q0 10 10 10h122q10 0 10 -10v-307q0 -30 11.5 -41.5t36.5 -11.5h31q40 0 40 -61q0 -35 -9.5 -47.5t-30.5 -12.5h-104q-49 0 -76.5 15.5t-36.5 58.5q-22 -18 -51 -27t-61 -9q-39 0 -74.5 11t-62.5 34t-42.5 60t-15.5 90q0 60 17.5 99.5t46 63t65 33t74.5 9.5
h100zM253 159q38 0 60.5 21.5t22.5 67.5v69h-80q-38 0 -61 -18t-23 -66q0 -41 23 -57.5t58 -16.5z" />
    <glyph glyph-name="aHeh.init" unicode="&#x647;" horiz-adv-x="651" arabic-form="initial" 
d="M0 0q-20 0 -30 13.5t-10 45.5q0 33 9.5 47.5t30.5 14.5h98q-14 30 -14 70q0 41 13.5 70t35 47t49.5 26.5t58 8.5q75 0 118 -36.5t43 -115.5q0 -21 -5.5 -38.5t-12.5 -31.5q45 0 60 27.5t15 67.5q0 39 -12.5 67t-35 46t-54 26.5t-69.5 8.5q-34 0 -71.5 -5.5t-73.5 -16.5
q-4 -2 -10 -3t-8 5l-21 75q-2 6 -1.5 10.5t7.5 7.5q49 19 96.5 30t112.5 11q84 0 139.5 -22.5t88 -59.5t45.5 -83t13 -94q0 -56 -10 -97.5t-33.5 -68.5t-62 -40t-95.5 -13h-403zM241 258q-28 0 -43.5 -18.5t-15.5 -52.5q0 -35 14 -51.5t39 -18.5h11q26 2 39 18.5t13 51.5
q0 34 -14.5 52.5t-42.5 18.5z" />
    <glyph glyph-name="aHeh.medi" unicode="&#x647;" horiz-adv-x="584" arabic-form="medial" 
d="M-40 59q0 62 40 62h85v96q0 64 19 107t49.5 68t69 35.5t77.5 10.5q45 0 85 -10t70 -33t48 -61t18 -93q0 -35 -9 -69t-20 -51h93q21 0 30.5 -13.5t9.5 -47.5t-10 -47t-30 -13h-94q10 -14 15.5 -32.5t5.5 -38.5q0 -39 -16 -67t-44.5 -45.5t-66.5 -25.5t-83 -8
q-46 0 -85.5 7.5t-69 26t-46 49t-16.5 75.5v59h-85q-40 0 -40 59zM301 317q-35 0 -56 -22.5t-21 -69.5v-106h84q39 0 57 30t18 74q0 48 -21.5 71t-60.5 23zM302 -101q39 0 55.5 13.5t16.5 38.5q0 26 -15.5 41.5t-65.5 15.5h-69v-49q0 -32 19 -46t59 -14z" />
    <glyph glyph-name="aWaw.fina" unicode="&#x648;" horiz-adv-x="550" arabic-form="final" 
d="M140 -205q-10 0 -10 10v101q0 10 10 10h115q21 0 37.5 3.5t27.5 12.5t17 25.5t6 42.5h-96q-98 0 -150.5 47t-52.5 161q0 64 18.5 108t49 71t70 39t81.5 12q44 0 84 -11t70 -36.5t47.5 -69t17.5 -107.5v-93h68q40 0 40 -60q0 -38 -9.5 -49.5t-30.5 -11.5h-68v-19
q0 -94 -47.5 -140t-148.5 -46h-146zM264 317q-40 0 -61.5 -28t-21.5 -76q0 -55 23.5 -73.5t61.5 -18.5h77v97q0 99 -79 99z" />
    <glyph glyph-name="aAlifMaksura.fina" unicode="&#x649;" horiz-adv-x="787" arabic-form="final" 
d="M492 -82q30 0 50 3.5t31 9.5t15.5 14.5t4.5 17.5q0 15 -10 26.5t-32 23t-57.5 25t-86.5 32.5q-9 3 -6 12l32 99q3 10 12 7q32 -12 60 -24t55 -21.5t53.5 -15.5t55.5 -6h118q40 0 40 -59q0 -33 -9.5 -47.5t-30.5 -14.5h-65q5 -8 11 -24t6 -36q0 -63 -50.5 -104t-159.5 -41
h-223q-71 0 -122.5 16t-85 45.5t-49.5 71.5t-16 94q0 56 19.5 109.5t44.5 91.5q5 9 15 3l102 -51q8 -5 3 -13q-17 -28 -29 -61t-12 -66q0 -35 13.5 -58t34.5 -36t47.5 -18t52.5 -5h168z" />
    <glyph glyph-name="aYeh.fina" unicode="&#x64a;" horiz-adv-x="790" arabic-form="final" 
d="M271 -392q-10 0 -10 10v98q0 10 10 10h100q10 0 10 -10v-98q0 -10 -10 -10h-100zM425 -392q-10 0 -10 10v98q0 10 10 10h101q10 0 10 -10v-98q0 -10 -10 -10h-101zM495 -82q30 0 50 3.5t31 9.5t15.5 14.5t4.5 17.5q0 15 -10 26.5t-32 23t-57.5 25t-86.5 32.5q-9 3 -6 12
l32 99q3 10 12 7q32 -12 60 -24t55 -21.5t53.5 -15.5t55.5 -6h118q40 0 40 -59q0 -33 -9.5 -47.5t-30.5 -14.5h-65q5 -8 11 -24t6 -36q0 -63 -50.5 -104t-159.5 -41h-223q-71 0 -122.5 16t-85 45.5t-49.5 71.5t-16 94q0 56 19.5 109.5t44.5 91.5q5 9 15 3l102 -51
q8 -5 3 -13q-17 -28 -29 -61t-12 -66q0 -35 13.5 -58t34.5 -36t47.5 -18t52.5 -5h168z" />
    <glyph glyph-name="aYeh.init" unicode="&#x64a;" horiz-adv-x="319" arabic-form="initial" 
d="M0 0q-20 0 -30 12.5t-10 44.5q0 64 40 64h62q25 0 36.5 11.5t11.5 41.5v237q0 10 10 10h121q10 0 10 -10v-285q0 -65 -27 -95.5t-90 -30.5h-134zM37 -205q-10 0 -10 10v98q0 10 10 10h100q10 0 10 -10v-98q0 -10 -10 -10h-100zM191 -205q-10 0 -10 10v98q0 10 10 10h101
q10 0 10 -10v-98q0 -10 -10 -10h-101z" />
    <glyph glyph-name="aYeh.medi" unicode="&#x64a;" horiz-adv-x="353" arabic-form="medial" 
d="M50 -205q-10 0 -10 10v98q0 10 10 10h100q10 0 10 -10v-98q0 -10 -10 -10h-100zM204 -205q-10 0 -10 10v98q0 10 10 10h101q10 0 10 -10v-98q0 -10 -10 -10h-101zM113 411q0 10 10 10h121q10 0 10 -10v-236q2 -25 21.5 -39.5t54.5 -14.5h23q20 0 30 -14t10 -46
q0 -61 -40 -61q-38 0 -66 9t-47 41q-16 -32 -47.5 -41t-86.5 -9h-103q-20 0 -30 12.5t-10 46.5t9.5 48t30.5 14h62q32 0 40 18.5t8 63.5v208z" />
    <glyph glyph-name=".notdef" horiz-adv-x="506" 
d="M0 670q0 10 10 10h486q10 0 10 -10v-660q0 -10 -10 -10h-486q-10 0 -10 10v660zM69 71q0 -6 6 -6h356q6 0 6 6v538q0 6 -6 6h-356q-6 0 -6 -6v-538zM209 243q-10 0 -10 10v24q0 19 5 30.5t14 23.5l46 60q12 16 17.5 27t5.5 25q0 18 -11 30t-30 12q-21 0 -32 -11t-16 -28
q-2 -11 -11 -9l-65 10q-10 0 -8 11q9 48 43.5 76.5t92.5 28.5q28 0 51.5 -9t40.5 -25t26 -37.5t9 -45.5q0 -46 -32 -82l-45 -60q-6 -8 -9.5 -16.5t-3.5 -21.5v-13q0 -10 -10 -10h-68zM198 191q0 10 10 10h71q10 0 10 -10v-67q0 -10 -10 -10h-71q-10 0 -10 10v67z" />
    <glyph glyph-name=".null" horiz-adv-x="500" 
 />
    <glyph glyph-name=".null" horiz-adv-x="500" 
 />
    <glyph glyph-name="nonmarkingreturn" unicode="&#xd;" horiz-adv-x="0" 
 />
    <glyph glyph-name="space" unicode=" " horiz-adv-x="236" 
 />
    <glyph glyph-name="space" unicode="&#xa0;" horiz-adv-x="236" 
 />
    <glyph glyph-name="exclam" unicode="!" horiz-adv-x="312" 
d="M115 199q-10 0 -10 10l-24 461q0 10 10 10h130q10 0 10 -10l-24 -461q0 -10 -10 -10h-82zM86 124q0 10 10 10h120q10 0 10 -10v-114q0 -10 -10 -10h-120q-10 0 -10 10v114z" />
    <glyph glyph-name="quotedbl" unicode="&#x22;" horiz-adv-x="374" 
d="M227 472q-10 0 -10 10v188q0 10 10 10h79q10 0 10 -10v-188q0 -10 -10 -10h-79zM68 472q-10 0 -10 10v188q0 10 10 10h79q10 0 10 -10v-188q0 -10 -10 -10h-79z" />
    <glyph glyph-name="numbersign" unicode="#" horiz-adv-x="548" 
d="M91 195h-63q-10 0 -10 10v79q0 10 10 10h76l14 102h-64q-10 0 -10 10v79q0 10 10 10h78l24 175q2 10 11 10h89q11 0 9 -10l-24 -175h104l24 175q2 10 11 10h89q11 0 9 -10l-24 -175h66q10 0 10 -10v-79q0 -10 -10 -10h-80l-14 -102h68q10 0 10 -10v-79q0 -10 -10 -10h-81
l-25 -185q-2 -10 -11 -10h-89q-11 0 -9 10l25 185h-104l-25 -185q-2 -10 -11 -10h-89q-11 0 -9 10zM317 294l14 102h-104l-14 -102h104z" />
    <glyph glyph-name="dollar" unicode="$" 
d="M54 63q-9 7 -2 15l68 84q7 8 13 2q22 -18 53 -33.5t67 -19.5v171q-88 14 -138 65t-50 132q0 42 13.5 78t38.5 63.5t59.5 45.5t76.5 23v59q0 10 10 10h46q10 0 10 -10v-59q48 -4 88 -19t71 -35q8 -6 2 -15l-58 -84q-6 -8 -14 -3q-21 13 -43.5 22t-45.5 13v-161
q95 -15 142 -66.5t47 -132.5q0 -88 -50.5 -145t-138.5 -70v-61q0 -10 -10 -10h-46q-10 0 -10 10v58q-60 3 -110.5 23t-88.5 50zM253 563q-23 -9 -36.5 -28t-13.5 -45q0 -24 10.5 -41.5t39.5 -28.5v143zM319 118q51 20 51 83q0 22 -11 39t-40 28v-150z" />
    <glyph glyph-name="percent" unicode="%" horiz-adv-x="814" 
d="M553 681q6 10 16 10h84q5 0 5.5 -3t-1.5 -7l-395 -682q-6 -10 -16 -10h-83q-5 0 -6 3t1 7zM198 330q-48 0 -82 22t-47 60q-3 7 -4.5 14.5t-2.5 18t-1.5 25.5t-0.5 39t0.5 39t1.5 25.5t2.5 17.5t4.5 15q13 38 47 60t82 22t82 -22t47 -60q3 -8 4.5 -15t2.5 -17.5t1.5 -25.5
t0.5 -39t-0.5 -39t-1.5 -25.5t-2.5 -18t-4.5 -14.5q-13 -38 -47 -60t-82 -22zM198 409q27 0 35 23q1 3 2 7t1.5 12t0.5 21.5v36.5v36.5t-0.5 21.5t-1.5 12t-2 7q-8 23 -35 23t-35 -23q-1 -3 -2 -7t-1.5 -12t-0.5 -21.5v-36.5v-36.5t0.5 -21.5t1.5 -12t2 -7q8 -23 35 -23z
M487 74q-3 7 -4.5 14.5t-2.5 18t-1.5 25.5t-0.5 38q0 24 0.5 39t1.5 25.5t2.5 17.5t4.5 15q13 38 46.5 60t82.5 22q48 0 82 -22t47 -60q2 -8 4 -15t3 -17.5t1.5 -25.5t0.5 -39q0 -23 -0.5 -38t-1.5 -25.5t-3 -18t-4 -14.5q-13 -38 -47 -60.5t-82 -22.5q-49 0 -82.5 22.5
t-46.5 60.5zM581 94q7 -24 35 -24q27 0 35 24q1 3 2 6.5t1.5 11.5t0.5 21.5v36.5v36.5t-0.5 21.5t-1.5 12t-2 7q-8 23 -35 23t-35 -23q-1 -3 -2 -7t-1.5 -12t-0.5 -21.5v-36.5v-36.5t0.5 -21.5t1.5 -11.5t2 -6.5z" />
    <glyph glyph-name="ampersand" unicode="&#x26;" horiz-adv-x="648" 
d="M54 172q0 27 6.5 52.5t21.5 50t39 50t59 53.5q-37 47 -55 81t-18 71q0 35 14 64.5t38 51t57 33.5t71 12q40 0 73 -12.5t56 -34.5t35.5 -50.5t12.5 -61.5q0 -23 -6 -43.5t-19.5 -41t-35.5 -41.5t-53 -45l89 -113l66 76q7 8 14 1l69 -58q7 -6 1 -14l-80 -95l18 -22
q9 -12 18 -16.5t21 -4.5h15q10 0 10 -10v-95q0 -10 -10 -10h-42q-36 0 -59 11t-48 44l-8 9q-43 -41 -83 -58t-91 -17q-47 0 -83.5 13.5t-61.5 38t-38 58t-13 73.5zM279 451q37 28 49.5 45.5t12.5 36.5q0 23 -15 38.5t-38 15.5q-24 0 -38.5 -15t-14.5 -39q0 -16 9 -33t35 -49
zM182 183q0 -34 20 -55.5t58 -21.5q24 0 45.5 10.5t49.5 37.5l-104 134q-40 -32 -54.5 -56.5t-14.5 -48.5z" />
    <glyph glyph-name="quotesingle" unicode="'" horiz-adv-x="215" 
d="M68 472q-10 0 -10 10v188q0 10 10 10h79q10 0 10 -10v-188q0 -10 -10 -10h-79v0z" />
    <glyph glyph-name="parenleft" unicode="(" horiz-adv-x="311" 
d="M180 -74q-66 91 -97.5 195t-31.5 207t31.5 207t97.5 195q7 10 16 10h72q11 0 6 -10q-44 -91 -67 -195t-23 -207t23.5 -208t66.5 -194q5 -10 -6 -10h-72q-9 0 -16 10z" />
    <glyph glyph-name="parenright" unicode=")" horiz-adv-x="311" 
d="M37 -74q43 89 66.5 194t23.5 208t-23 207t-67 195q-5 10 6 10h72q9 0 16 -10q66 -91 97.5 -195t31.5 -207t-31.5 -207t-97.5 -195q-7 -10 -16 -10h-72q-11 0 -6 10z" />
    <glyph glyph-name="asterisk" unicode="*" horiz-adv-x="367" 
d="M156 374q-10 0 -10 10l1 80l-69 -41q-9 -5 -14 4l-27 48q-5 9 4 14l69 38l-69 39q-9 5 -4 14l27 48q5 8 14 3l69 -41l-1 80q0 10 10 10h55q10 0 10 -10l-2 -80l69 41q9 5 14 -3l27 -48q5 -9 -3 -14l-70 -39l70 -38q9 -5 4 -14l-28 -48q-5 -9 -14 -4l-69 41l2 -80
q0 -10 -10 -10h-55v0z" />
    <glyph glyph-name="plus" unicode="+" 
d="M217 211q0 6 -6 6h-150q-10 0 -10 10v98q0 10 10 10h150q6 0 6 6v152q0 10 10 10h102q10 0 10 -10v-152q0 -6 6 -6h150q10 0 10 -10v-98q0 -10 -10 -10h-150q-6 0 -6 -6v-152q0 -10 -10 -10h-102q-10 0 -10 10v152z" />
    <glyph glyph-name="comma" unicode="," horiz-adv-x="253" 
d="M60 130q0 10 10 10h113q10 0 10 -10v-121q0 -11 -9 -20l-99 -90q-8 -7 -15 -7q-10 0 -10 11v227z" />
    <glyph glyph-name="hyphen" unicode="-" horiz-adv-x="392" 
d="M52 204q-10 0 -10 10v102q0 10 10 10h288q10 0 10 -10v-102q0 -10 -10 -10h-288v0z" />
    <glyph glyph-name="hyphen" unicode="&#x2010;" horiz-adv-x="392" 
d="M52 204q-10 0 -10 10v102q0 10 10 10h288q10 0 10 -10v-102q0 -10 -10 -10h-288v0z" />
    <glyph glyph-name="hyphen" unicode="&#xad;" horiz-adv-x="392" 
d="M52 204q-10 0 -10 10v102q0 10 10 10h288q10 0 10 -10v-102q0 -10 -10 -10h-288v0z" />
    <glyph glyph-name="period" unicode="." horiz-adv-x="259" 
d="M60 130q0 10 10 10h119q10 0 10 -10v-120q0 -10 -10 -10h-119q-10 0 -10 10v120z" />
    <glyph glyph-name="slash" unicode="/" horiz-adv-x="436" 
d="M262 681q3 10 13 10h109q10 0 7 -10l-218 -682q-3 -10 -13 -10h-108q-10 0 -7 10z" />
    <glyph glyph-name="zero" unicode="0" 
d="M73 128q-4 11 -6.5 24.5t-4.5 36t-3 58.5t-1 93t1 93t3 58.5t4.5 36t6.5 24.5q21 66 72.5 102.5t132.5 36.5t132.5 -36.5t72.5 -102.5q4 -11 6.5 -24.5t4.5 -36t3 -58.5t1 -93t-1 -93t-3 -58.5t-4.5 -36t-6.5 -24.5q-21 -66 -72.5 -102.5t-132.5 -36.5t-132.5 36.5
t-72.5 102.5zM209 153q15 -46 69 -46t69 46q2 7 3.5 16t2.5 28.5t1.5 53t0.5 89.5t-0.5 89.5t-1.5 53t-2.5 28.5t-3.5 16q-15 46 -69 46t-69 -46q-2 -7 -3.5 -16t-2.5 -28.5t-1.5 -53t-0.5 -89.5t0.5 -89.5t1.5 -53t2.5 -28.5t3.5 -16z" />
    <glyph glyph-name="one" unicode="1" 
d="M242 522h-2l-108 -74q-11 -7 -11 6v124q0 8 7 14l114 82q7 6 18 6h112q10 0 10 -10v-660q0 -10 -10 -10h-120q-10 0 -10 10v512z" />
    <glyph glyph-name="two" unicode="2" 
d="M65 103q0 8 5 14l239 284q20 23 30 45.5t10 48.5q0 34 -19.5 56t-54.5 22q-71 0 -80 -80q0 -10 -11 -8l-110 18q-10 2 -8 12q3 35 18 67t42.5 56t66 38.5t87.5 14.5t87.5 -15t65.5 -41t41.5 -61.5t14.5 -76.5q0 -49 -18.5 -88.5t-50.5 -76.5l-179 -211v-2h238
q10 0 10 -10v-99q0 -10 -10 -10h-404q-10 0 -10 10v93z" />
    <glyph glyph-name="three" unicode="3" 
d="M56 145q-2 10 8 13l110 21q9 1 12 -8q9 -27 31 -45.5t58 -18.5q39 0 61.5 25t22.5 63q0 46 -25.5 71t-69.5 25h-29q-10 0 -10 10v97q0 10 10 10h27q38 0 61 23t23 62q0 36 -20.5 58t-56.5 22q-32 0 -50.5 -17t-26.5 -46q-3 -9 -12 -7l-109 21q-10 2 -8 11q6 34 23 62.5
t44.5 49.5t64 32.5t81.5 11.5q50 0 89 -14t66 -39t41 -59.5t14 -75.5q0 -44 -19.5 -80t-56.5 -60v-2q15 -8 31 -22t29 -34.5t21 -47.5t8 -61q0 -47 -16.5 -85t-46.5 -65t-70.5 -42t-88.5 -15q-87 0 -147 41t-74 115z" />
    <glyph glyph-name="four" unicode="4" 
d="M51 99q-10 0 -10 10v102q0 8 2 12l204 449q4 8 14 8h127q10 0 7 -10l-204 -447v-3h125q6 0 6 6v147q0 10 10 10h116q10 0 10 -10v-147q0 -6 6 -6h45q10 0 10 -10v-101q0 -10 -10 -10h-45q-6 0 -6 -6v-83q0 -10 -10 -10h-116q-10 0 -10 10v83q0 6 -6 6h-265v0z" />
    <glyph glyph-name="five" unicode="5" 
d="M71 139q-2 9 8 11l108 21q9 1 12 -8q9 -24 28 -40t51 -16q26 0 44.5 12t26.5 36q5 12 6.5 27.5t1.5 38.5q0 25 -1.5 40t-6.5 27q-8 26 -27 36.5t-44 10.5q-28 0 -44.5 -12t-24.5 -27q-4 -10 -13 -10h-107q-10 0 -10 10v374q0 10 10 10h380q10 0 10 -10v-99q0 -10 -10 -10
h-261q-6 0 -6 -6v-134h3q13 11 38.5 21.5t63.5 10.5q66 0 111 -29t64 -86q7 -21 10.5 -47t3.5 -69q0 -32 -4 -58.5t-11 -47.5q-20 -63 -74 -95t-127 -32q-44 0 -80 11t-63.5 30.5t-44.5 47.5t-21 61z" />
    <glyph glyph-name="six" unicode="6" 
d="M50 203q0 44 13 84t37 84l165 302q3 7 12 7h127q12 0 7 -10l-144 -263l2 -2q5 2 16.5 4t25.5 2q40 0 75.5 -14.5t62 -41t42 -64.5t15.5 -85q0 -51 -17.5 -91.5t-48 -68.5t-72.5 -42.5t-90 -14.5q-49 0 -90.5 14.5t-72 42t-48 67.5t-17.5 90zM188 201q0 -42 24 -68t66 -26
t66 26t24 68t-24 68.5t-66 26.5t-66 -26.5t-24 -68.5z" />
    <glyph glyph-name="seven" unicode="7" 
d="M349 555v3h-143q-6 0 -6 -6v-71q0 -10 -10 -10h-111q-10 0 -10 10v189q0 10 10 10h407q10 0 10 -10v-104q0 -6 -2 -12l-216 -545q-4 -9 -14 -9h-125q-11 0 -6 11z" />
    <glyph glyph-name="eight" unicode="8" 
d="M48 196q0 57 24.5 97t56.5 62v2q-24 17 -45 52.5t-21 83.5q0 39 14 75t41.5 63.5t67.5 43.5t92 16t92 -16t67.5 -43.5t41.5 -63.5t14 -75q0 -48 -21 -83.5t-45 -52.5v-2q32 -22 56.5 -62t24.5 -97q0 -47 -17.5 -85t-48 -65t-73 -42t-91.5 -15q-50 0 -92 15t-72.5 42
t-48 65t-17.5 85zM278 414q35 0 56.5 23.5t21.5 55.5q0 33 -21.5 56.5t-56.5 23.5t-56.5 -23.5t-21.5 -56.5q0 -32 21.5 -55.5t56.5 -23.5zM186 202q0 -42 25 -68.5t67 -26.5t67 26.5t25 68.5t-25 68t-67 26t-67 -26t-25 -68z" />
    <glyph glyph-name="nine" unicode="9" 
d="M289 273l-2 2q-5 -2 -16.5 -4t-25.5 -2q-40 0 -75.5 14.5t-62 41t-42 64.5t-15.5 85q0 51 17.5 91.5t48 68.5t72.5 42.5t90 14.5q49 0 90.5 -14.5t72 -42t48 -67.5t17.5 -90q0 -44 -13 -84t-37 -84l-165 -302q-4 -7 -12 -7h-127q-12 0 -7 10zM278 384q42 0 66 26.5
t24 68.5t-24 68t-66 26t-66 -26t-24 -68t24 -68.5t66 -26.5z" />
    <glyph glyph-name="colon" unicode=":" horiz-adv-x="270" 
d="M75 345q-10 0 -10 10v119q0 10 10 10h120q10 0 10 -10v-119q0 -10 -10 -10h-120zM65 130q0 10 10 10h120q10 0 10 -10v-120q0 -10 -10 -10h-120q-10 0 -10 10v120z" />
    <glyph glyph-name="semicolon" unicode=";" horiz-adv-x="270" 
d="M75 345q-10 0 -10 10v119q0 10 10 10h120q10 0 10 -10v-119q0 -10 -10 -10h-120zM69 130q0 10 10 10h113q10 0 10 -10v-121q0 -12 -8 -20l-100 -90q-8 -7 -15 -7q-10 0 -10 11v227z" />
    <glyph glyph-name="less" unicode="&#x3c;" 
d="M61 220q-10 3 -10 14v84q0 11 10 14l434 170q10 3 10 -6v-109q0 -9 -10 -13l-265 -97v-2l265 -97q10 -4 10 -13v-109q0 -9 -10 -6l-434 170v0z" />
    <glyph glyph-name="equal" unicode="=" 
d="M61 322q-10 0 -10 10v98q0 10 10 10h434q10 0 10 -10v-98q0 -10 -10 -10h-434zM61 112q-10 0 -10 10v98q0 10 10 10h434q10 0 10 -10v-98q0 -10 -10 -10h-434z" />
    <glyph glyph-name="greater" unicode="&#x3e;" 
d="M51 165q0 9 10 13l265 97v2l-265 97q-10 4 -10 13v109q0 9 10 6l434 -170q10 -3 10 -14v-84q0 -11 -10 -14l-434 -170q-10 -3 -10 6v109z" />
    <glyph glyph-name="question" unicode="?" horiz-adv-x="473" 
d="M170 199q-10 0 -10 10v42q0 29 7 47t22 37l70 91q21 25 29.5 43t8.5 37q0 29 -17.5 47.5t-48.5 18.5t-49.5 -18.5t-25.5 -51.5q-3 -10 -13 -9l-108 16q-10 1 -8 12q11 78 65.5 124t142.5 46q45 0 82 -14t63.5 -38t41 -57t14.5 -71t-13.5 -68.5t-39.5 -61.5l-67 -88
q-12 -14 -16 -26.5t-4 -33.5v-24q0 -10 -10 -10h-116zM158 124q0 10 10 10h120q10 0 10 -10v-114q0 -10 -10 -10h-120q-10 0 -10 10v114z" />
    <glyph glyph-name="at" unicode="@" horiz-adv-x="910" 
d="M43 265q0 90 30 164.5t84 128t129 82.5t166 29t166.5 -29.5t129.5 -82.5t83.5 -126.5t29.5 -162.5q0 -55 -14.5 -95.5t-39 -67t-56.5 -39.5t-68 -13q-48 0 -80 18t-49 47h-1q-16 -29 -47 -46.5t-87 -17.5q-113 0 -143 95q-8 22 -11 47.5t-3 68.5q0 42 3 68t11 47
q15 48 49.5 72t85.5 24q39 0 67 -15t41 -36h1v31q0 9 8 9h96q8 0 8 -9v-243q0 -33 15.5 -48t37.5 -15q28 0 46.5 26t18.5 91q0 68 -20.5 124.5t-59.5 96.5t-94 62t-124 22t-124 -22t-94 -62t-59.5 -97t-20.5 -126q0 -68 20.5 -124t59.5 -95.5t94 -61.5t124 -22
q66 0 114.5 12.5t92.5 34.5q10 5 14 -4l36 -65q5 -8 -4 -13q-54 -32 -115 -47.5t-138 -15.5q-91 0 -166 29.5t-129 82.5t-84 126.5t-30 162.5zM382 198q16 -46 66 -46q51 0 66 46q4 11 5 24.5t1 42.5t-1 42.5t-5 23.5q-15 47 -66 47q-49 0 -66 -47q-3 -10 -4.5 -23.5
t-1.5 -42.5t1.5 -42.5t4.5 -24.5z" />
    <glyph glyph-name="A" unicode="A" horiz-adv-x="644" 
d="M248 670q3 10 13 10h126q10 0 13 -10l230 -660q3 -10 -7 -10h-130q-10 0 -13 10l-39 119h-238l-38 -119q-3 -10 -13 -10h-131q-10 0 -7 10zM401 254l-77 238h-3l-77 -238h157z" />
    <glyph glyph-name="B" unicode="B" horiz-adv-x="610" 
d="M65 670q0 10 10 10h265q111 0 164 -50t53 -131q0 -56 -22.5 -91t-56.5 -54v-2q17 -6 33.5 -19.5t29 -33.5t20.5 -45.5t8 -55.5q0 -101 -62.5 -149.5t-173.5 -48.5h-258q-10 0 -10 10v660zM322 402q42 0 65.5 21t23.5 59t-23.5 58.5t-65.5 20.5h-104q-6 0 -6 -6v-147
q0 -6 6 -6h104zM212 125q0 -6 6 -6h112q45 0 68.5 22.5t23.5 62.5q0 39 -23.5 62t-68.5 23h-112q-6 0 -6 -6v-158z" />
    <glyph glyph-name="C" unicode="C" horiz-adv-x="575" 
d="M66 156q-6 16 -9.5 32.5t-5.5 37t-3 48t-1 66.5t1 66.5t3 48t5.5 36.5t9.5 33q27 84 89.5 125.5t152.5 41.5q87 0 147.5 -39.5t89.5 -111.5q5 -9 -5 -12l-109 -49q-9 -5 -14 5q-14 33 -39.5 55t-68.5 22q-40 0 -65.5 -20t-36.5 -55q-3 -9 -5 -19.5t-3.5 -26.5t-2 -40
t-0.5 -60t0.5 -60t2 -40t3.5 -26.5t5 -19.5q11 -35 36.5 -55t65.5 -20q43 0 68.5 22t39.5 55q5 10 14 5l109 -49q10 -3 5 -12q-29 -72 -89.5 -111.5t-147.5 -39.5q-90 0 -152.5 41.5t-89.5 125.5z" />
    <glyph glyph-name="D" unicode="D" horiz-adv-x="630" 
d="M65 670q0 10 10 10h253q90 0 150 -38t85 -115q4 -14 7.5 -29.5t6 -36.5t3.5 -50t1 -71t-1 -71t-3.5 -50t-6 -36.5t-7.5 -29.5q-25 -77 -85 -115t-150 -38h-253q-10 0 -10 10v660zM212 137q0 -6 6 -6h77q51 0 82 16.5t44 58.5q3 7 5 16.5t3.5 24.5t2 37.5t0.5 55.5
t-0.5 55t-2 37t-3.5 24.5t-5 17.5q-13 42 -44 58.5t-82 16.5h-77q-6 0 -6 -6v-406z" />
    <glyph glyph-name="E" unicode="E" horiz-adv-x="565" 
d="M65 670q0 10 10 10h436q10 0 10 -10v-107q0 -10 -10 -10h-293q-6 0 -6 -6v-135q0 -6 6 -6h244q10 0 10 -10v-106q0 -10 -10 -10h-244q-6 0 -6 -6v-141q0 -6 6 -6h293q10 0 10 -10v-107q0 -10 -10 -10h-436q-10 0 -10 10v660z" />
    <glyph glyph-name="F" unicode="F" horiz-adv-x="557" 
d="M65 670q0 10 10 10h436q10 0 10 -10v-107q0 -10 -10 -10h-293q-6 0 -6 -6v-143q0 -6 6 -6h244q10 0 10 -10v-106q0 -10 -10 -10h-244q-6 0 -6 -6v-256q0 -10 -10 -10h-127q-10 0 -10 10v660z" />
    <glyph glyph-name="G" unicode="G" horiz-adv-x="628" 
d="M66 154q-6 18 -9.5 35t-5.5 38t-3 48t-1 65t1 65t3 48t5.5 38t9.5 35q26 83 92.5 124t157.5 41q48 0 87 -11t69.5 -30.5t52 -46t33.5 -57.5q5 -10 -4 -15l-107 -45q-11 -3 -14 5q-20 35 -47.5 52.5t-69.5 17.5q-44 0 -71 -20.5t-38 -55.5q-3 -9 -5 -20.5t-3.5 -28t-2 -40
t-0.5 -56.5t0.5 -57t2 -40.5t3.5 -28t5 -20.5q11 -35 38.5 -55t72.5 -20q38 0 68 18t41 52q4 13 6 29t2 38q0 6 -6 6h-92q-10 0 -10 10v96q0 10 10 10h234q10 0 10 -10v-56q0 -45 -4 -85t-13 -68q-26 -82 -91.5 -126t-156.5 -44t-157.5 41t-92.5 124z" />
    <glyph glyph-name="H" unicode="H" horiz-adv-x="658" 
d="M65 670q0 10 10 10h127q10 0 10 -10v-255q0 -6 6 -6h222q6 0 6 6v255q0 10 10 10h127q10 0 10 -10v-660q0 -10 -10 -10h-127q-10 0 -10 10v262q0 6 -6 6h-222q-6 0 -6 -6v-262q0 -10 -10 -10h-127q-10 0 -10 10v660z" />
    <glyph glyph-name="I" unicode="I" horiz-adv-x="277" 
d="M65 670q0 10 10 10h127q10 0 10 -10v-660q0 -10 -10 -10h-127q-10 0 -10 10v660z" />
    <glyph glyph-name="J" unicode="J" horiz-adv-x="521" 
d="M21 76q-5 8 1 14l93 71q7 5 14 -2q13 -15 34.5 -27.5t48.5 -12.5q48 0 74 30t26 88v433q0 10 10 10h127q10 0 10 -10v-426q0 -126 -65.5 -190.5t-182.5 -64.5q-63 0 -114.5 24.5t-75.5 62.5z" />
    <glyph glyph-name="K" unicode="K" horiz-adv-x="645" 
d="M65 670q0 10 10 10h127q10 0 10 -10v-294l226 295q6 9 17 9h145q5 0 6.5 -4t-2.5 -9l-206 -258l225 -397q7 -12 -6 -12h-147q-10 0 -15 9l-154 286l-89 -112v-173q0 -10 -10 -10h-127q-10 0 -10 10v660z" />
    <glyph glyph-name="L" unicode="L" horiz-adv-x="550" 
d="M65 670q0 10 10 10h127q10 0 10 -10v-533q0 -6 6 -6h300q10 0 10 -10v-111q0 -10 -10 -10h-443q-10 0 -10 10v660z" />
    <glyph glyph-name="M" unicode="M" horiz-adv-x="763" 
d="M65 670q0 10 10 10h119q12 0 16 -10l172 -388h4l169 388q4 10 16 10h117q10 0 10 -10v-660q0 -10 -10 -10h-113q-10 0 -10 10v383h-4l-126 -287q-6 -13 -19 -13h-69q-13 0 -19 13l-126 287h-4v-383q0 -10 -10 -10h-113q-10 0 -10 10v660z" />
    <glyph glyph-name="N" unicode="N" horiz-adv-x="655" 
d="M65 670q0 10 10 10h120q11 0 17 -10l240 -428h5v428q0 10 10 10h113q10 0 10 -10v-660q0 -10 -10 -10h-119q-11 0 -17 10l-241 427h-5v-427q0 -10 -10 -10h-113q-10 0 -10 10v660z" />
    <glyph glyph-name="O" unicode="O" horiz-adv-x="628" 
d="M314 -11q-89 0 -155.5 41t-92.5 124q-6 18 -9.5 35t-5.5 38t-3 48t-1 65t1 65t3 48t5.5 38t9.5 35q26 82 92.5 123.5t155.5 41.5t155.5 -41.5t92.5 -123.5q6 -18 9.5 -35t5.5 -38t3 -48t1 -65t-1 -65t-3 -48t-5.5 -38t-9.5 -35q-26 -83 -92.5 -124t-155.5 -41zM314 119
q42 0 69 20t38 55q3 9 5 20.5t3.5 28t2 40.5t0.5 57t-0.5 57t-2 40.5t-3.5 28t-5 20.5q-11 35 -38 55t-69 20t-69 -20t-38 -55q-3 -9 -5 -20.5t-3.5 -28t-2 -40.5t-0.5 -57t0.5 -57t2 -40.5t3.5 -28t5 -20.5q11 -35 38 -55t69 -20z" />
    <glyph glyph-name="P" unicode="P" horiz-adv-x="605" 
d="M75 0q-10 0 -10 10v660q0 10 10 10h264q55 0 99 -16t75 -45t47 -69t16 -89q0 -48 -16.5 -88t-47 -69t-74.5 -45t-99 -16h-121q-6 0 -6 -6v-227q0 -10 -10 -10h-127zM330 370q47 0 73 24.5t26 66.5t-26 67t-73 25h-112q-6 0 -6 -6v-171q0 -6 6 -6h112z" />
    <glyph glyph-name="Q" unicode="Q" horiz-adv-x="628" 
d="M536 -49q-3 -3 -7 -3.5t-8 3.5l-69 69q-62 -31 -138 -31q-89 0 -155.5 41t-92.5 124q-6 18 -9.5 35t-5.5 38t-3 48t-1 65t1 65t3 48t5.5 38t9.5 35q26 82 92.5 123.5t155.5 41.5q90 0 155.5 -41t92.5 -124q6 -18 9.5 -35t5.5 -38t3 -48t1 -65t-1 -65t-3 -48t-5.5 -38
t-9.5 -35q-4 -11 -8 -21t-9 -20l71 -70q7 -7 0 -14zM314 118q21 0 36 4l-43 43q-7 7 0 14l80 76q8 7 15 0l27 -27q2 17 3 43.5t1 68.5q0 33 -0.5 57t-2 41t-3.5 28.5t-5 20.5q-11 35 -38.5 55t-69.5 20t-69.5 -20t-38.5 -55q-3 -9 -5 -20.5t-3.5 -28.5t-2 -41t-0.5 -57
t0.5 -57t2 -41t3.5 -28.5t5 -20.5q11 -35 38.5 -55t69.5 -20z" />
    <glyph glyph-name="R" unicode="R" horiz-adv-x="624" 
d="M441 0q-11 0 -15 10l-117 249h-91q-6 0 -6 -6v-243q0 -10 -10 -10h-127q-10 0 -10 10v660q0 10 10 10h271q52 0 94.5 -15.5t73 -43.5t47 -67t16.5 -85q0 -66 -32 -115t-89 -74l134 -268q2 -5 0 -8.5t-7 -3.5h-142zM338 384q42 0 67 23t25 62q0 38 -25 61t-67 23h-120
q-6 0 -6 -6v-157q0 -6 6 -6h120z" />
    <glyph glyph-name="S" unicode="S" horiz-adv-x="595" 
d="M294 -11q-40 0 -78.5 7.5t-72.5 20t-62.5 29.5t-48.5 36q-8 8 -1 17l76 87q6 8 15 1q34 -27 79 -48.5t99 -21.5t82.5 22.5t28.5 58.5q0 30 -22 49t-83 27l-36 5q-104 14 -159.5 63.5t-55.5 140.5q0 47 17 85.5t48.5 65.5t76 42t99.5 15q68 0 128 -19t103 -52q9 -6 2 -15
l-61 -91q-6 -8 -14 -3q-39 26 -77.5 39t-80.5 13q-45 0 -68 -21t-23 -53q0 -29 23.5 -48t82.5 -27l36 -5q106 -14 160 -63.5t54 -142.5q0 -46 -17 -85.5t-50.5 -68t-83.5 -44.5t-116 -16z" />
    <glyph glyph-name="T" unicode="T" horiz-adv-x="557" 
d="M215 0q-10 0 -10 10v533q0 6 -6 6h-172q-10 0 -10 10v111q0 10 10 10h503q10 0 10 -10v-111q0 -10 -10 -10h-172q-6 0 -6 -6v-533q0 -10 -10 -10h-127z" />
    <glyph glyph-name="U" unicode="U" horiz-adv-x="645" 
d="M323 -11q-57 0 -105 17t-82.5 50t-54 82t-19.5 112v420q0 10 10 10h127q10 0 10 -10v-424q0 -61 31 -94t83 -33q51 0 82 33t31 94v424q0 10 10 10h127q10 0 10 -10v-420q0 -63 -19.5 -112t-54 -82t-82 -50t-104.5 -17z" />
    <glyph glyph-name="V" unicode="V" horiz-adv-x="595" 
d="M240 0q-10 0 -13 10l-216 659q-3 11 9 11h130q10 0 13 -10l136 -446h3l132 446q3 10 13 10h129q11 0 8 -11l-216 -659q-3 -10 -12 -10h-116z" />
    <glyph glyph-name="W" unicode="W" horiz-adv-x="865" 
d="M565 0q-10 0 -13 10l-118 423h-2l-119 -423q-3 -10 -13 -10h-100q-9 0 -12 10l-176 660q-2 10 8 10h129q10 0 12 -10l98 -427h2l116 427q3 10 13 10h87q9 0 12 -10l120 -427h2l94 427q1 10 12 10h128q10 0 8 -10l-175 -660q-2 -10 -13 -10h-100z" />
    <glyph glyph-name="X" unicode="X" horiz-adv-x="595" 
d="M437 0q-11 0 -17 10l-121 207h-3l-122 -207q-6 -10 -17 -10h-138q-5 0 -7 3.5t1 8.5l203 339l-189 317q-2 5 -0.5 8.5t6.5 3.5h139q10 0 16 -10l108 -184h3l108 184q6 10 16 10h139q5 0 6.5 -3.5t-0.5 -8.5l-190 -317l204 -339q2 -5 0.5 -8.5t-6.5 -3.5h-139z" />
    <glyph glyph-name="Y" unicode="Y" horiz-adv-x="568" 
d="M220 0q-10 0 -10 10v261l-201 399q-4 10 7 10h130q11 0 15 -10l123 -248h3l123 248q4 10 15 10h126q5 0 7 -3t0 -7l-201 -399v-261q0 -10 -10 -10h-127z" />
    <glyph glyph-name="Z" unicode="Z" horiz-adv-x="546" 
d="M50 0q-10 0 -10 10v110q0 5 3 10l293 417v2h-275q-10 0 -10 10v111q0 10 10 10h435q10 0 10 -10v-110q0 -6 -3 -10l-294 -417v-2h287q10 0 10 -10v-111q0 -10 -10 -10h-446z" />
    <glyph glyph-name="bracketleft" unicode="[" horiz-adv-x="302" 
d="M74 -84q-10 0 -10 10v804q0 10 10 10h190q10 0 10 -10v-84q0 -10 -10 -10h-70q-6 0 -6 -6v-604q0 -6 6 -6h70q10 0 10 -10v-84q0 -10 -10 -10h-190z" />
    <glyph glyph-name="backslash" unicode="\" horiz-adv-x="436" 
d="M275 -11q-10 0 -13 10l-217 682q-3 10 7 10h108q10 0 13 -10l218 -682q3 -10 -7 -10h-109z" />
    <glyph glyph-name="bracketright" unicode="]" horiz-adv-x="302" 
d="M38 -84q-10 0 -10 10v84q0 10 10 10h70q6 0 6 6v604q0 6 -6 6h-70q-10 0 -10 10v84q0 10 10 10h190q10 0 10 -10v-804q0 -10 -10 -10h-190z" />
    <glyph glyph-name="asciicircum" unicode="^" 
d="M390 253q-10 0 -14 10l-97 248h-2l-98 -248q-3 -10 -13 -10h-109q-10 0 -7 10l171 407q5 10 14 10h86q9 0 14 -10l171 -407q3 -10 -7 -10h-109z" />
    <glyph glyph-name="underscore" unicode="_" horiz-adv-x="520" 
d="M0 -152v88h520v-88h-520z" />
    <glyph glyph-name="grave" unicode="`" horiz-adv-x="454" 
d="M236 551q-12 0 -19 10l-99 130q-3 4 -1.5 7t6.5 3h116q12 0 18 -10l76 -130q5 -10 -5 -10h-92z" />
    <glyph glyph-name="a" unicode="a" horiz-adv-x="528" 
d="M347 0q-10 0 -10 10v32h-1q-19 -24 -51 -38.5t-82 -14.5q-32 0 -61.5 8.5t-51.5 26.5t-35 46t-13 67q0 80 55.5 118t145.5 38h86q6 0 6 6v18q0 34 -20.5 50t-78.5 16q-37 0 -64 -9t-44 -22q-8 -6 -13 2l-45 79q-5 9 3 14q31 22 75.5 35t104.5 13q59 0 100 -10.5t66.5 -32
t37 -54.5t11.5 -78v-310q0 -10 -10 -10h-111zM245 94q90 0 90 67v33q0 6 -6 6h-68q-86 0 -86 -55q0 -51 70 -51z" />
    <glyph glyph-name="b" unicode="b" horiz-adv-x="551" 
d="M331 -11q-48 0 -79 15.5t-48 40.5h-1v-35q0 -10 -10 -10h-120q-10 0 -10 10v660q0 10 10 10h120q10 0 10 -10v-231h1q17 25 48 40.5t79 15.5q61 0 103 -29t61 -87q9 -29 13 -59t4 -78q0 -47 -4 -77.5t-13 -59.5q-19 -57 -61 -86.5t-103 -29.5zM286 107q58 0 75 52
q5 14 7 32.5t2 50.5t-2 50.5t-7 32.5q-16 52 -75 52q-58 0 -74 -52q-5 -14 -7 -32.5t-2 -50.5t2 -50.5t7 -32.5q17 -52 74 -52z" />
    <glyph glyph-name="c" unicode="c" horiz-adv-x="481" 
d="M263 -11q-77 0 -132 34.5t-77 102.5q-8 22 -11.5 50t-3.5 66t3.5 66t11.5 50q22 68 77 102.5t132 34.5q63 0 110 -25.5t73 -65.5q5 -8 -2 -14l-87 -57q-9 -6 -15 2q-16 22 -33.5 32t-43.5 10q-28 0 -47.5 -13t-27.5 -39q-5 -15 -7 -34t-2 -49t2 -49t7 -34q8 -26 27.5 -39
t47.5 -13q26 0 43.5 10t33.5 32q6 8 15 2l87 -57q7 -6 2 -14q-26 -40 -73 -65.5t-110 -25.5z" />
    <glyph glyph-name="d" unicode="d" horiz-adv-x="551" 
d="M358 0q-10 0 -10 10v35h-1q-17 -25 -48 -40.5t-79 -15.5q-61 0 -103 29.5t-61 86.5q-9 29 -13 59.5t-4 77.5q0 48 4 78t13 59q19 58 61 87t103 29q48 0 79 -15.5t48 -40.5h1v231q0 10 10 10h120q10 0 10 -10v-660q0 -10 -10 -10h-120zM265 107q57 0 74 52q5 14 7 32.5
t2 50.5t-2 50.5t-7 32.5q-16 52 -74 52q-59 0 -75 -52q-5 -14 -7 -32.5t-2 -50.5t2 -50.5t7 -32.5q17 -52 75 -52z" />
    <glyph glyph-name="e" unicode="e" horiz-adv-x="527" 
d="M270 -11q-83 0 -138 36t-76 102q-8 23 -12.5 50t-4.5 65t4 65.5t12 50.5q21 66 75.5 101.5t132.5 35.5q81 0 134.5 -36t74.5 -100q4 -12 7 -25.5t5 -30.5t3 -39.5t1 -53.5q0 -10 -11 -10h-293q-6 0 -6 -6q1 -15 6 -27q10 -32 36 -48t64 -16q36 0 63 11.5t48 31.5
q9 7 14 0l66 -62q8 -7 1 -14q-35 -37 -87 -59t-119 -22zM344 293q6 0 6 6q0 11 -1.5 19.5t-3.5 16.5q-8 25 -29.5 39t-51.5 14t-51.5 -14t-29.5 -39q-2 -8 -3.5 -16.5t-1.5 -19.5q0 -6 6 -6h160z" />
    <glyph glyph-name="f" unicode="f" horiz-adv-x="339" 
d="M91 0q-10 0 -10 10v365q0 6 -6 6h-30q-10 0 -10 10v83q0 10 10 10h30q6 0 6 6v23q0 89 41.5 128t128.5 39h55q10 0 10 -10v-94q0 -10 -10 -10h-31q-33 0 -44 -10.5t-11 -41.5v-24q0 -6 6 -6h79q10 0 10 -10v-83q0 -10 -10 -10h-79q-6 0 -6 -6v-365q0 -10 -10 -10h-119z
" />
    <glyph glyph-name="g" unicode="g" horiz-adv-x="543" 
d="M239 -191q-27 0 -54 5.5t-51.5 15t-44.5 23t-33 29.5q-6 8 1 15l71 72q7 7 15 0q23 -20 47 -31t53 -11q51 0 74 26.5t23 80.5v41h-1q-16 -26 -47 -41t-77 -15q-60 0 -101.5 29.5t-60.5 87.5q-8 27 -12 54.5t-4 66.5t4 67t12 54q19 58 60.5 87.5t101.5 29.5q46 0 77 -15
t47 -41h1v35q0 10 10 10h120q10 0 10 -10v-422q0 -243 -241 -243zM259 137q29 0 46.5 13t25.5 39q5 14 7 29.5t2 38.5t-2 38.5t-7 29.5q-8 26 -25.5 39t-46.5 13t-46 -13t-26 -39q-4 -14 -6 -29.5t-2 -38.5t2 -38.5t6 -29.5q9 -26 26 -39t46 -13z" />
    <glyph glyph-name="h" unicode="h" horiz-adv-x="553" 
d="M364 0q-10 0 -10 10v278q0 40 -18.5 64t-56.5 24q-36 0 -56 -24t-20 -64v-278q0 -10 -10 -10h-120q-10 0 -10 10v660q0 10 10 10h120q10 0 10 -10v-230h1q17 23 47.5 39t77.5 16q40 0 71 -13t52 -37t31.5 -57t10.5 -73v-305q0 -10 -10 -10h-120z" />
    <glyph glyph-name="i" unicode="i" horiz-adv-x="266" 
d="M73 561q-10 0 -10 10v99q0 10 10 10h120q10 0 10 -10v-99q0 -10 -10 -10h-120zM73 0q-10 0 -10 10v464q0 10 10 10h120q10 0 10 -10v-464q0 -10 -10 -10h-120z" />
    <glyph glyph-name="j" unicode="j" horiz-adv-x="266" 
d="M73 561q-10 0 -10 10v99q0 10 10 10h120q10 0 10 -10v-99q0 -10 -10 -10h-120zM-11 -180q-10 0 -10 10v98q0 10 10 10h20q29 0 41.5 11.5t12.5 44.5v480q0 10 10 10h120q10 0 10 -10v-479q0 -93 -46.5 -134t-134.5 -41h-33z" />
    <glyph glyph-name="k" unicode="k" horiz-adv-x="531" 
d="M376 0q-9 0 -15 10l-108 195l-50 -62v-133q0 -10 -10 -10h-120q-10 0 -10 10v660q0 10 10 10h120q10 0 10 -10v-367l139 171q9 10 19 10h128q5 0 6 -3.5t-2 -6.5l-148 -171l169 -293q2 -3 1 -6.5t-6 -3.5h-133z" />
    <glyph glyph-name="l" unicode="l" horiz-adv-x="304" 
d="M211 -6q-81 0 -115.5 36.5t-34.5 117.5v522q0 10 10 10h120q10 0 10 -10v-511q0 -25 10 -35.5t32 -10.5h21q10 0 10 -10v-99q0 -10 -10 -10h-53z" />
    <glyph glyph-name="m" unicode="m" horiz-adv-x="844" 
d="M655 0q-10 0 -10 10v278q0 40 -19 64t-57 24q-36 0 -55.5 -24t-19.5 -64v-278q0 -10 -10 -10h-120q-10 0 -10 10v278q0 40 -18.5 64t-56.5 24q-36 0 -56 -24t-20 -64v-278q0 -10 -10 -10h-120q-10 0 -10 10v464q0 10 10 10h120q10 0 10 -10v-34h1q17 23 47.5 39t77.5 16
q87 0 130 -61h1q27 29 64 45t88 16q85 0 129 -50t44 -130v-305q0 -10 -10 -10h-120z" />
    <glyph glyph-name="n" unicode="n" horiz-adv-x="553" 
d="M364 0q-10 0 -10 10v278q0 40 -18.5 64t-56.5 24q-36 0 -56 -24t-20 -64v-278q0 -10 -10 -10h-120q-10 0 -10 10v464q0 10 10 10h120q10 0 10 -10v-34h1q17 23 47.5 39t77.5 16q40 0 71 -13t52 -37t31.5 -57t10.5 -73v-305q0 -10 -10 -10h-120z" />
    <glyph glyph-name="o" unicode="o" horiz-adv-x="530" 
d="M265 -11q-77 0 -133 35t-77 101q-8 26 -12 53.5t-4 63.5t4 63.5t12 53.5q21 66 77 101t133 35t133 -35t77 -101q8 -26 12 -53.5t4 -63.5t-4 -63.5t-12 -53.5q-21 -66 -77 -101t-133 -35zM265 107q58 0 75 52q5 17 7 34.5t2 48.5t-2 48.5t-7 34.5q-17 52 -75 52t-75 -52
q-5 -17 -7 -34.5t-2 -48.5t2 -48.5t7 -34.5q17 -52 75 -52z" />
    <glyph glyph-name="p" unicode="p" horiz-adv-x="551" 
d="M73 -180q-10 0 -10 10v644q0 10 10 10h120q10 0 10 -10v-35h1q17 25 48 40.5t79 15.5q61 0 103 -29t61 -87q9 -29 13 -59t4 -78q0 -47 -4 -77.5t-13 -59.5q-19 -57 -61 -86.5t-103 -29.5q-48 0 -79 15.5t-48 40.5h-1v-215q0 -10 -10 -10h-120zM286 107q58 0 75 52
q5 14 7 32.5t2 50.5t-2 50.5t-7 32.5q-16 52 -75 52q-58 0 -74 -52q-5 -14 -7 -32.5t-2 -50.5t2 -50.5t7 -32.5q17 -52 74 -52z" />
    <glyph glyph-name="q" unicode="q" horiz-adv-x="551" 
d="M358 -180q-10 0 -10 10v215h-1q-17 -25 -48 -40.5t-79 -15.5q-61 0 -103 29.5t-61 86.5q-9 29 -13 59.5t-4 77.5q0 48 4 78t13 59q19 58 61 87t103 29q48 0 79 -15.5t48 -40.5h1v35q0 10 10 10h120q10 0 10 -10v-644q0 -10 -10 -10h-120zM265 107q57 0 74 52q5 14 7 32.5
t2 50.5t-2 50.5t-7 32.5q-16 52 -74 52q-59 0 -75 -52q-5 -14 -7 -32.5t-2 -50.5t2 -50.5t7 -32.5q17 -52 75 -52z" />
    <glyph glyph-name="r" unicode="r" horiz-adv-x="426" 
d="M73 0q-10 0 -10 10v464q0 10 10 10h120q10 0 10 -10v-41h1q17 29 49 45.5t77 16.5q24 0 46.5 -7.5t38.5 -21.5q7 -6 3 -14l-56 -102q-5 -6 -14 -2q-36 23 -70 22q-39 -2 -57 -29t-18 -76v-255q0 -10 -10 -10h-120z" />
    <glyph glyph-name="s" unicode="s" horiz-adv-x="505" 
d="M253 -11q-76 0 -130.5 22.5t-89.5 52.5q-7 7 0 14l65 73q6 6 14 0q32 -25 71 -39t77 -14t56.5 13t18.5 33q0 17 -13.5 27.5t-55.5 14.5l-54 6q-77 8 -117.5 45t-40.5 103q0 72 52 113.5t147 41.5q62 0 112 -17t84 -43q7 -7 1 -15l-56 -69q-6 -7 -14 -2q-25 16 -59 27.5
t-72 11.5q-31 0 -46 -11t-15 -29q0 -17 13 -26.5t54 -13.5l53 -6q86 -8 123.5 -47t37.5 -100q-1 -75 -56.5 -120.5t-159.5 -45.5z" />
    <glyph glyph-name="t" unicode="t" horiz-adv-x="331" 
d="M227 -6q-84 0 -119 39t-35 122v220q0 6 -6 6h-30q-10 0 -10 10v83q0 10 10 10h30q6 0 6 6v130q0 10 10 10h119q10 0 10 -10v-130q0 -6 6 -6h62q10 0 10 -10v-83q0 -10 -10 -10h-62q-6 0 -6 -6v-214q0 -27 10 -37.5t34 -10.5h24q10 0 10 -10v-99q0 -10 -10 -10h-53z" />
    <glyph glyph-name="u" unicode="u" horiz-adv-x="549" 
d="M356 0q-10 0 -10 10v35h-1q-19 -25 -48.5 -40.5t-75.5 -15.5q-40 0 -70.5 13.5t-51 37.5t-31 57t-10.5 72v305q0 10 10 10h120q10 0 10 -10v-278q0 -39 18.5 -63.5t55.5 -24.5q36 0 55 24t19 64v278q0 10 10 10h120q10 0 10 -10v-464q0 -10 -10 -10h-120z" />
    <glyph glyph-name="v" unicode="v" horiz-adv-x="508" 
d="M199 0q-9 0 -12 10l-172 464q-3 10 8 10h126q10 0 13 -10l94 -287h2l90 287q3 10 13 10h124q11 0 8 -10l-172 -464q-3 -10 -12 -10h-110z" />
    <glyph glyph-name="w" unicode="w" horiz-adv-x="763" 
d="M478 0q-9 0 -12 10l-83 281h-2l-85 -281q-3 -10 -12 -10h-99q-9 0 -12 10l-155 464q-3 10 7 10h123q11 0 14 -10l80 -288h2l83 288q3 10 14 10h84q10 0 13 -10l85 -288h2l76 288q3 10 13 10h123q11 0 8 -10l-155 -464q-3 -10 -12 -10h-100z" />
    <glyph glyph-name="x" unicode="x" horiz-adv-x="515" 
d="M359 0q-9 0 -15 9l-87 132h-1l-86 -132q-8 -9 -16 -9h-129q-6 0 -7.5 3t0.5 7l163 241l-151 223q-2 4 -0.5 7t7.5 3h130q11 0 17 -9l73 -114h1l74 114q7 9 16 9h129q7 0 8.5 -3t-0.5 -7l-151 -223l163 -241q2 -4 0.5 -7t-8.5 -3h-130z" />
    <glyph glyph-name="y" unicode="y" horiz-adv-x="507" 
d="M93 -180q-10 0 -10 10v98q0 10 10 10h21q26 0 41.5 11.5t24.5 38.5l13 36l-180 450q-3 10 8 10h128q9 0 12 -10l97 -280h2l90 280q3 10 12 10h124q11 0 8 -10l-196 -515q-15 -40 -31.5 -67t-36.5 -43t-45 -22.5t-58 -6.5h-34z" />
    <glyph glyph-name="z" unicode="z" horiz-adv-x="490" 
d="M56 0q-10 0 -10 10v90q0 5 3 10l230 257v2h-210q-10 0 -10 10v95q0 10 10 10h365q10 0 10 -10v-95q0 -6 -3 -10l-228 -252v-2h221q10 0 10 -10v-95q0 -10 -10 -10h-378z" />
    <glyph glyph-name="braceleft" unicode="{" horiz-adv-x="357" 
d="M252 -84q-62 0 -94 31.5t-32 91.5v153q0 42 -16.5 61.5t-52.5 19.5q-10 0 -10 10v94q0 10 10 10q36 0 52.5 19.5t16.5 61.5v149q0 60 32 91.5t94 31.5h67q10 0 10 -10v-84q0 -10 -10 -10h-28q-42 0 -42 -43v-137q0 -57 -16.5 -84t-55.5 -41v-2q39 -14 55.5 -41.5
t16.5 -84.5v-140q0 -43 42 -43h28q10 0 10 -10v-84q0 -10 -10 -10h-67z" />
    <glyph glyph-name="bar" unicode="|" horiz-adv-x="335" 
d="M118 -84q-10 0 -10 10v804q0 10 10 10h99q10 0 10 -10v-804q0 -10 -10 -10h-99z" />
    <glyph glyph-name="braceright" unicode="}" horiz-adv-x="357" 
d="M38 -84q-10 0 -10 10v84q0 10 10 10h28q42 0 42 43v140q0 57 16.5 84.5t55.5 41.5v2q-39 14 -55.5 41t-16.5 84v137q0 43 -42 43h-28q-10 0 -10 10v84q0 10 10 10h67q62 0 94 -31.5t32 -91.5v-149q0 -42 16.5 -61.5t52.5 -19.5q10 0 10 -10v-94q0 -10 -10 -10
q-36 0 -52.5 -19.5t-16.5 -61.5v-153q0 -60 -32 -91.5t-94 -31.5h-67z" />
    <glyph glyph-name="asciitilde" unicode="~" 
d="M510 296q-21 -47 -58.5 -76t-85.5 -29q-32 0 -55.5 9t-49.5 26q-19 12 -33.5 18.5t-31.5 6.5q-21 0 -36 -11.5t-29 -37.5q-5 -9 -15 -2l-67 41q-7 5 -3 14q21 47 58.5 76t85.5 29q32 0 55.5 -9t49.5 -26q19 -12 33.5 -18.5t31.5 -6.5q21 0 36 11.5t29 37.5q5 9 15 2
l67 -41q7 -4 3 -14z" />
    <glyph glyph-name="exclamdown" unicode="&#xa1;" horiz-adv-x="312" 
d="M197 285q10 0 10 -10l24 -461q0 -10 -10 -10h-130q-10 0 -10 10l24 461q0 10 10 10h82zM226 360q0 -10 -10 -10h-120q-10 0 -10 10v114q0 10 10 10h120q10 0 10 -10v-114z" />
    <glyph glyph-name="cent" unicode="&#xa2;" 
d="M329 494q54 -6 94 -30.5t63 -59.5q5 -9 -2 -14l-87 -57q-9 -7 -15 2q-11 16 -23.5 25.5t-29.5 13.5v-264q17 4 29.5 13.5t23.5 26.5q6 8 15 1l87 -57q5 -2 4.5 -6t-2.5 -7q-23 -36 -62.5 -60.5t-94.5 -29.5v-79q0 -10 -10 -10h-45q-10 0 -10 10v79q-67 7 -113 41t-65 94
q-8 22 -11.5 50t-3.5 66t3.5 66t11.5 50q20 60 65.5 94t112.5 42v78q0 10 10 10h45q10 0 10 -10v-78zM213 242q0 -29 2 -48.5t7 -33.5q11 -37 42 -47v258q-32 -12 -42 -46q-5 -15 -7 -34t-2 -49z" />
    <glyph glyph-name="sterling" unicode="&#xa3;" 
d="M92 0q-10 0 -10 10v97q0 7 5 12q8 7 14 14.5t10.5 17t7 22.5t2.5 32v58q0 6 -6 6h-41q-10 0 -10 10v79q0 10 10 10h41q6 0 6 6v122q0 94 51 144.5t139 50.5q76 0 122.5 -38.5t57.5 -98.5q2 -9 -9 -11l-109 -24q-10 0 -11 9q-4 19 -16 32t-34 13q-25 0 -37.5 -16.5
t-12.5 -44.5v-138q0 -6 6 -6h121q10 0 10 -10v-79q0 -10 -10 -10h-121q-6 0 -6 -6v-43q0 -35 -6.5 -59t-19.5 -40v-2h245q10 0 10 -10v-99q0 -10 -10 -10h-389z" />
    <glyph glyph-name="currency" unicode="&#xa4;" 
d="M451 65q-7 -7 -14 0l-60 60q-45 -25 -99 -25q-55 0 -100 25l-59 -59q-7 -7 -14 0l-68 69q-7 7 0 14l59 59q-23 43 -23 97q0 26 6.5 50.5t17.5 46.5l-60 60q-6 6 0 14l68 69q7 7 14 0l59 -60q47 25 100 25q54 0 99 -25l60 60q7 7 14 0l68 -69q7 -7 0 -14l-60 -60
q25 -45 25 -97q0 -27 -6.5 -51.5t-17.5 -45.5l60 -60q7 -7 0 -14zM278 203q43 0 71 29t28 73t-28 73t-71 29t-70.5 -29t-27.5 -73t27.5 -73t70.5 -29z" />
    <glyph glyph-name="yen" unicode="&#xa5;" 
d="M218 0q-10 0 -10 10v115q0 6 -6 6h-116q-10 0 -10 10v62q0 10 10 10h116q6 0 6 6v34q0 6 -6 6h-116q-10 0 -10 10v62q0 10 10 10h92v2l-148 327q-4 10 7 10h128q9 0 14 -10l100 -258h3l98 258q3 10 14 10h125q11 0 7 -10l-148 -327v-2h92q10 0 10 -10v-62q0 -10 -10 -10
h-116q-6 0 -6 -6v-34q0 -6 6 -6h116q10 0 10 -10v-62q0 -10 -10 -10h-116q-6 0 -6 -6v-115q0 -10 -10 -10h-120z" />
    <glyph glyph-name="brokenbar" unicode="&#xa6;" horiz-adv-x="335" 
d="M118 388q-10 0 -10 10v332q0 10 10 10h99q10 0 10 -10v-332q0 -10 -10 -10h-99zM118 -84q-10 0 -10 10v336q0 10 10 10h99q10 0 10 -10v-336q0 -10 -10 -10h-99z" />
    <glyph glyph-name="section" unicode="&#xa7;" horiz-adv-x="558" 
d="M276 -191q-45 0 -79 11t-57 30.5t-36 45.5t-16 55q-2 9 6 11l104 18q8 2 10 -7q3 -25 18 -41.5t47 -16.5t48.5 15.5t16.5 41.5q0 32 -23 52t-86 36q-156 40 -156 191q0 52 24 91.5t64 61.5v1q-35 23 -49.5 53t-14.5 72q0 33 13 62t37.5 51t58.5 35t76 13q45 0 79 -12
t57 -32.5t35 -46.5t14 -53q1 -9 -7 -10l-102 -18q-10 -2 -10 8q-4 25 -19 41.5t-44 16.5t-45 -15t-16 -41q0 -32 23.5 -51t81.5 -34q156 -42 156 -191q0 -53 -26 -93.5t-62 -59.5v-1q37 -23 52 -53.5t15 -78.5q0 -33 -13 -62t-37.5 -50t-59.5 -33.5t-78 -12.5zM279 168
q36 0 57.5 22t21.5 62t-21.5 62t-57.5 22t-57.5 -22t-21.5 -62t21.5 -62t57.5 -22z" />
    <glyph glyph-name="dieresis" unicode="&#xa8;" horiz-adv-x="454" 
d="M281 561q-10 0 -10 10v99q0 10 10 10h93q10 0 10 -10v-99q0 -10 -10 -10h-93zM81 561q-10 0 -10 10v99q0 10 10 10h92q10 0 10 -10v-99q0 -10 -10 -10h-92z" />
    <glyph glyph-name="copyright" unicode="&#xa9;" horiz-adv-x="811" 
d="M405 -11q-75 0 -139 26.5t-111 74t-74 111.5t-27 139t27 139t74 111t111 74t139 27t139.5 -27t111.5 -74t74 -111t27 -139t-27 -139t-74 -111.5t-111.5 -74t-139.5 -26.5zM405 69q58 0 107 20.5t85 56.5t56 85.5t20 108.5q0 58 -20 108t-56 86t-85 56.5t-107 20.5
q-57 0 -106 -20.5t-85 -56.5t-56 -86t-20 -108q0 -59 20 -108.5t56 -85.5t85 -56.5t106 -20.5zM415 144q-62 0 -106 27.5t-62 82.5q-5 14 -7.5 33.5t-2.5 52.5t2.5 52.5t7.5 34.5q18 54 62 82t106 28q48 0 85.5 -19.5t57.5 -49.5q6 -8 -3 -14l-65 -42q-3 -3 -7 -2t-6 4
q-13 17 -26.5 24.5t-33.5 7.5q-23 0 -40 -11.5t-24 -33.5q-3 -8 -4.5 -20t-1.5 -41q0 -28 1.5 -40.5t4.5 -20.5q7 -21 24 -32.5t40 -11.5q20 0 33.5 7.5t26.5 23.5q5 9 13 3l65 -43q9 -5 3 -13q-20 -31 -57.5 -50t-85.5 -19z" />
    <glyph glyph-name="ordfeminine" unicode="&#xaa;" horiz-adv-x="356" 
d="M229 392q-10 0 -10 10v13h-1q-12 -13 -31.5 -20.5t-50.5 -7.5q-20 0 -38.5 5t-32.5 15.5t-22.5 27t-8.5 39.5q0 48 33.5 72t95.5 24h49q6 0 6 6v6q0 14 -12.5 21t-45.5 7q-20 0 -37.5 -5t-28.5 -11q-9 -5 -14 3l-30 51q-5 9 4 14q44 26 118 26q79 0 111.5 -25t32.5 -80
v-181q0 -10 -10 -10h-77zM165 458q53 0 53 35v8q0 6 -6 6h-42q-40 0 -40 -25q0 -24 35 -24z" />
    <glyph glyph-name="guillemotleft" unicode="&#xab;" horiz-adv-x="563" 
d="M272 257q-7 7 0 14l220 219q3 3 6.5 2t3.5 -6v-117q0 -6 -2 -10t-8 -10l-82 -81q-4 -4 0 -8l82 -81q6 -6 8 -10t2 -10v-117q0 -5 -3.5 -6t-6.5 2zM28 257q-7 7 0 14l220 219q3 3 6.5 2t3.5 -6v-117q0 -6 -2 -10t-8 -10l-82 -81q-4 -4 0 -8l82 -81q10 -10 10 -20v-117
q0 -5 -3.5 -6t-6.5 2z" />
    <glyph glyph-name="logicalnot" unicode="&#xac;" 
d="M393 84q-10 0 -10 10v117q0 6 -6 6h-316q-10 0 -10 10v98q0 10 10 10h434q10 0 10 -10v-231q0 -10 -10 -10h-102z" />
    <glyph glyph-name="registered" unicode="&#xae;" horiz-adv-x="440" 
d="M220 301q-41 0 -76 14.5t-61 40.5t-40.5 61t-14.5 76q0 40 14.5 75t40.5 61t61 40.5t76 14.5t76 -14.5t61 -40.5t40.5 -61t14.5 -75q0 -41 -14.5 -76t-40.5 -61t-61 -40.5t-76 -14.5zM220 341q32 0 59.5 11t47.5 31.5t31 48.5t11 61t-11 60.5t-31 48t-47.5 31.5t-59.5 11
t-59.5 -11t-47.5 -31.5t-31 -48t-11 -60.5t11 -61t31 -48.5t47.5 -31.5t59.5 -11zM145 388q-7 0 -7 7v198q0 7 7 7h88q38 0 59 -18t21 -50q0 -43 -39 -60l40 -77q3 -7 -5 -7h-45q-7 0 -10 7l-34 70h-22q-4 0 -4 -5v-65q0 -7 -7 -7h-42zM230 510q28 0 28 22t-28 22h-32
q-4 0 -4 -4v-36q0 -4 4 -4h32z" />
    <glyph glyph-name="macron" unicode="&#xaf;" horiz-adv-x="454" 
d="M85 575q-10 0 -10 10v75q0 10 10 10h283q10 0 10 -10v-75q0 -10 -10 -10h-283z" />
    <glyph glyph-name="degree" unicode="&#xb0;" horiz-adv-x="438" 
d="M219 387q-33 0 -61 11.5t-48.5 32t-32 48.5t-11.5 61t11.5 60.5t32 48t48.5 32t61 11.5t61 -11.5t48.5 -32t32 -48t11.5 -60.5t-11.5 -61t-32 -48.5t-48.5 -32t-61 -11.5zM219 467q31 0 50 20.5t19 52.5t-19 52t-50 20t-50 -20t-19 -52t19 -52.5t50 -20.5z" />
    <glyph glyph-name="plusminus" unicode="&#xb1;" 
d="M227 170q-10 0 -10 10v151q0 6 -6 6h-150q-10 0 -10 10v98q0 10 10 10h150q6 0 6 6v151q0 10 10 10h102q10 0 10 -10v-151q0 -6 6 -6h150q10 0 10 -10v-98q0 -10 -10 -10h-150q-6 0 -6 -6v-151q0 -10 -10 -10h-102zM61 0q-10 0 -10 10v98q0 10 10 10h434q10 0 10 -10v-98
q0 -10 -10 -10h-434z" />
    <glyph glyph-name="twosuperior" unicode="&#xb2;" horiz-adv-x="358" 
d="M48 430q-10 0 -10 10v66q0 10 8 17l144 147q11 11 18 23.5t7 26.5q0 17 -9.5 27t-27.5 10q-35 0 -41 -38q-2 -11 -11 -9l-79 13q-10 2 -8 11q1 19 11 38.5t27.5 35.5t43.5 26t61 10q60 0 98.5 -33.5t38.5 -89.5q0 -32 -12.5 -56t-36.5 -47l-96 -98v-1h135q10 0 10 -10
v-69q0 -10 -10 -10h-261z" />
    <glyph glyph-name="threesuperior" unicode="&#xb3;" horiz-adv-x="358" 
d="M181 422q-57 0 -97 24t-50 73q-2 11 7 12l77 15q9 1 13 -7q6 -13 17.5 -21.5t28.5 -8.5q20 0 32 11.5t12 30.5q0 43 -50 43h-17q-10 0 -10 10v66q0 10 10 10h14q20 0 32 9.5t12 28.5q0 39 -39 39q-16 0 -25.5 -7t-14.5 -18q-4 -9 -13 -7l-75 14q-9 1 -7 11q9 40 44 67
t95 27q67 0 103 -32.5t36 -83.5q0 -22 -9.5 -43.5t-32.5 -38.5v-1q18 -8 34.5 -32t16.5 -62q0 -59 -39 -94t-105 -35z" />
    <glyph glyph-name="acute" unicode="&#xb4;" horiz-adv-x="454" 
d="M126 551q-11 0 -6 10l77 130q6 10 18 10h115q5 0 6.5 -3t-1.5 -7l-99 -130q-8 -10 -19 -10h-91z" />
    <glyph glyph-name="micron" unicode="&#xb5;" horiz-adv-x="554" 
d="M361 0q-10 0 -10 10v37h-1q-12 -20 -35.5 -36t-56.5 -18q-20 -1 -33 3.5t-21 11.5h-1v-178q0 -10 -10 -10h-120q-10 0 -10 10v644q0 10 10 10h120q10 0 10 -10v-278q0 -41 18.5 -64.5t55.5 -23.5t55.5 23.5t18.5 64.5v278q0 10 10 10h120q10 0 10 -10v-464q0 -10 -10 -10
h-120z" />
    <glyph glyph-name="paragraph" unicode="&#xb6;" horiz-adv-x="657" 
d="M473 -180q-10 0 -10 10v740q0 6 -6 6h-69q-6 0 -6 -6v-740q0 -10 -10 -10h-96q-10 0 -10 10v408q-45 3 -83 20.5t-65 47t-42 68.5t-15 85q0 47 16 87.5t46 70t73.5 46.5t99.5 17h273q10 0 10 -10v-840q0 -10 -10 -10h-96z" />
    <glyph glyph-name="periodcentered" unicode="&#xb7;" horiz-adv-x="259" 
d="M70 195q-10 0 -10 10v119q0 10 10 10h119q10 0 10 -10v-119q0 -10 -10 -10h-119z" />
    <glyph glyph-name="cedilla" unicode="&#xb8;" horiz-adv-x="454" 
d="M152 -160q-10 0 -7 10l61 150q4 10 14 10h84q10 0 7 -10l-46 -150q-3 -10 -16 -10h-97z" />
    <glyph glyph-name="onesuperior" unicode="&#xb9;" horiz-adv-x="358" 
d="M161 430q-10 0 -10 10v282h-2l-64 -40q-4 -2 -7 0t-3 7v84q0 10 9 15l62 41q10 7 17 7h84q10 0 10 -10v-386q0 -10 -10 -10h-86z" />
    <glyph glyph-name="ordmasculine" unicode="&#xba;" horiz-adv-x="372" 
d="M186 384q-113 0 -142 88q-5 13 -7 28t-2 36t2 36t7 28q29 88 142 88t142 -88q5 -13 7 -28t2 -36t-2 -36t-7 -28q-29 -88 -142 -88zM186 468q32 0 42 28q5 13 5 40t-5 40q-10 28 -42 28t-42 -28q-5 -13 -5 -40t5 -40q10 -28 42 -28z" />
    <glyph glyph-name="guillemotright" unicode="&#xbb;" horiz-adv-x="563" 
d="M315 38q-3 -3 -6.5 -2t-3.5 6v117q0 10 10 20l82 81q4 4 0 8l-82 81q-6 6 -8 10t-2 10v117q0 5 3.5 6t6.5 -2l220 -219q7 -7 0 -14zM71 38q-3 -3 -6.5 -2t-3.5 6v117q0 10 10 20l82 81q4 4 0 8l-82 81q-6 6 -8 10t-2 10v117q0 5 3.5 6t6.5 -2l221 -219q7 -7 0 -14z" />
    <glyph glyph-name="onequarter" unicode="&#xbc;" horiz-adv-x="873" 
d="M173 274q-10 0 -10 10v282h-2l-64 -40q-4 -2 -7 0t-3 7v84q0 10 9 15l62 41q10 7 17 7h84q10 0 10 -10v-386q0 -10 -10 -10h-86zM666 0q-10 0 -10 10v40q0 6 -6 6h-164q-10 0 -10 10v69q0 5 1.5 8.5t3.5 8.5l115 244q5 10 14 10h91q11 0 6 -10l-117 -251v-1h60q6 0 6 6
v69q0 10 10 10h79q10 0 10 -10v-69q0 -6 6 -6h15q10 0 10 -10v-68q0 -10 -10 -10h-15q-6 0 -6 -6v-40q0 -10 -10 -10h-79zM179 -11q-5 0 -6 3t1 7l395 682q6 10 16 10h84q5 0 6 -3t-1 -7l-395 -682q-6 -10 -16 -10h-84z" />
    <glyph glyph-name="onehalf" unicode="&#xbd;" horiz-adv-x="907" 
d="M173 274q-10 0 -10 10v282h-2l-64 -40q-4 -2 -7 0t-3 7v84q0 10 9 15l62 41q10 7 17 7h84q10 0 10 -10v-386q0 -10 -10 -10h-86zM548 0q-10 0 -10 10v66q0 10 8 17l144 147q11 11 18 23.5t7 26.5q0 17 -9.5 27t-27.5 10q-35 0 -41 -38q-2 -11 -11 -9l-79 13q-10 2 -8 11
q1 19 11 38.5t27.5 35.5t43.5 26t61 10q60 0 98.5 -33.5t38.5 -89.5q0 -32 -12.5 -56t-36.5 -47l-96 -98v-1h135q10 0 10 -10v-69q0 -10 -10 -10h-261zM179 -11q-5 0 -6 3t1 7l395 682q6 10 16 10h84q5 0 6 -3t-1 -7l-395 -682q-6 -10 -16 -10h-84z" />
    <glyph glyph-name="threequarters" unicode="&#xbe;" horiz-adv-x="941" 
d="M733 0q-10 0 -10 10v40q0 6 -6 6h-164q-10 0 -10 10v69q0 5 1.5 8.5t3.5 8.5l115 244q5 10 14 10h91q11 0 6 -10l-117 -251v-1h60q6 0 6 6v69q0 10 10 10h79q10 0 10 -10v-69q0 -6 6 -6h15q10 0 10 -10v-68q0 -10 -10 -10h-15q-6 0 -6 -6v-40q0 -10 -10 -10h-79zM248 -11
q-5 0 -6 3t1 7l395 682q6 10 16 10h84q5 0 6 -3t-1 -7l-395 -682q-6 -10 -16 -10h-84zM235 266q-57 0 -97 24t-50 73q-2 11 7 12l77 15q9 1 13 -7q6 -13 17.5 -21.5t28.5 -8.5q20 0 32 11.5t12 30.5q0 43 -50 43h-17q-10 0 -10 10v66q0 10 10 10h14q20 0 32 9.5t12 28.5
q0 39 -39 39q-16 0 -25.5 -7t-14.5 -18q-4 -9 -13 -7l-75 14q-9 1 -7 11q9 40 44 67t95 27q67 0 103 -32.5t36 -83.5q0 -22 -9.5 -43.5t-32.5 -38.5v-1q18 -8 34.5 -32t16.5 -62q0 -59 -39 -94t-105 -35z" />
    <glyph glyph-name="questiondown" unicode="&#xbf;" horiz-adv-x="473" 
d="M305 285q10 0 10 -10v-42q0 -29 -7 -47t-22 -37l-70 -91q-21 -25 -29.5 -43t-8.5 -37q0 -29 17.5 -47.5t48.5 -18.5t49.5 18.5t25.5 51.5q3 10 13 9l108 -16q10 -1 8 -12q-11 -78 -65.5 -124t-142.5 -46q-45 0 -82 14t-63.5 38t-41 57t-14.5 71t13.5 68.5t39.5 61.5
l67 88q12 14 16 26.5t4 33.5v24q0 10 10 10h116zM317 360q0 -10 -10 -10h-120q-10 0 -10 10v114q0 10 10 10h120q10 0 10 -10v-114z" />
    <glyph glyph-name="Agrave" unicode="&#xc0;" horiz-adv-x="644" 
d="M248 670q3 10 13 10h126q10 0 13 -10l230 -660q3 -10 -7 -10h-130q-10 0 -13 10l-39 119h-238l-38 -119q-3 -10 -13 -10h-131q-10 0 -7 10zM401 254l-77 238h-3l-77 -238h157zM277 754q-10 0 -19 9l-123 116q-4 4 -2 7t7 3h120q11 0 19 -10l95 -115q3 -4 2 -7t-6 -3h-93z
" />
    <glyph glyph-name="Aacute" unicode="&#xc1;" horiz-adv-x="644" 
d="M248 670q3 10 13 10h126q10 0 13 -10l230 -660q3 -10 -7 -10h-130q-10 0 -13 10l-39 119h-238l-38 -119q-3 -10 -13 -10h-131q-10 0 -7 10zM401 254l-77 238h-3l-77 -238h157zM276 754q-5 0 -6 3t2 7l95 115q8 10 19 10h120q5 0 7 -3t-2 -7l-123 -116q-9 -9 -19 -9h-93z
" />
    <glyph glyph-name="Acircumflex" unicode="&#xc2;" horiz-adv-x="644" 
d="M248 670q3 10 13 10h126q10 0 13 -10l230 -660q3 -10 -7 -10h-130q-10 0 -13 10l-39 119h-238l-38 -119q-3 -10 -13 -10h-131q-10 0 -7 10zM401 254l-77 238h-3l-77 -238h157zM397 747q-8 0 -12 2t-10 8l-53 54h-2l-52 -54q-6 -6 -10 -8t-12 -2h-80q-5 0 -6 3t2 7
l103 131q7 10 19 10h75q11 0 18 -10l104 -131q3 -4 2 -7t-6 -3h-80z" />
    <glyph glyph-name="Atilde" unicode="&#xc3;" horiz-adv-x="644" 
d="M248 670q3 10 13 10h126q10 0 13 -10l230 -660q3 -10 -7 -10h-130q-10 0 -13 10l-39 119h-238l-38 -119q-3 -10 -13 -10h-131q-10 0 -7 10zM401 254l-77 238h-3l-77 -238h157zM385 748q-23 0 -40 6t-35 15q-14 8 -27.5 13t-30.5 5q-22 0 -38 -9t-33 -22q-4 -3 -6.5 -2
t-2.5 4v72q0 12 8 21q16 16 35 25.5t42 9.5t40 -6t35 -15q15 -8 28 -13t30 -5q22 0 38 9t33 22q4 3 7 2t3 -4v-72q0 -12 -9 -21q-15 -16 -34.5 -25.5t-42.5 -9.5z" />
    <glyph glyph-name="Adieresis" unicode="&#xc4;" horiz-adv-x="644" 
d="M248 670q3 10 13 10h126q10 0 13 -10l230 -660q3 -10 -7 -10h-130q-10 0 -13 10l-39 119h-238l-38 -119q-3 -10 -13 -10h-131q-10 0 -7 10zM401 254l-77 238h-3l-77 -238h157zM378 760q-10 0 -10 10v98q0 10 10 10h90q10 0 10 -10v-98q0 -10 -10 -10h-90zM175 760
q-10 0 -10 10v98q0 10 10 10h90q10 0 10 -10v-98q0 -10 -10 -10h-90z" />
    <glyph glyph-name="Aring" unicode="&#xc5;" horiz-adv-x="644" 
d="M248 670q3 10 13 10h126q10 0 13 -10l230 -660q3 -10 -7 -10h-130q-10 0 -13 10l-39 119h-238l-38 -119q-3 -10 -13 -10h-131q-10 0 -7 10zM401 254l-77 238h-3l-77 -238h157zM322 712q-46 0 -76.5 30.5t-30.5 76.5t30.5 76t76.5 30t76.5 -30t30.5 -76t-30.5 -76.5
t-76.5 -30.5zM322 771q20 0 33 13.5t13 34.5q0 20 -13 34t-33 14t-33.5 -14t-13.5 -34q0 -21 13.5 -34.5t33.5 -13.5z" />
    <glyph glyph-name="AE" unicode="&#xc6;" horiz-adv-x="929" 
d="M439 0q-10 0 -10 10v113q0 6 -6 6h-192l-55 -119q-4 -10 -14 -10h-141q-11 0 -6 10l317 660q5 10 14 10h529q10 0 10 -10v-107q0 -10 -10 -10h-293q-6 0 -6 -6v-135q0 -6 6 -6h244q10 0 10 -10v-106q0 -10 -10 -10h-244q-6 0 -6 -6v-141q0 -6 6 -6h293q10 0 10 -10v-107
q0 -10 -10 -10h-436zM288 254h135q6 0 6 6v293h-3z" />
    <glyph glyph-name="Ccedilla" unicode="&#xc7;" horiz-adv-x="575" 
d="M201 -160q-10 0 -7 10l58 144q-71 13 -117 51.5t-69 110.5q-6 16 -9.5 32.5t-5.5 37t-3 48t-1 66.5t1 66.5t3 48t5.5 36.5t9.5 33q27 84 89.5 125.5t152.5 41.5q87 0 147.5 -39.5t89.5 -111.5q5 -9 -5 -12l-109 -49q-9 -5 -14 5q-14 33 -39.5 55t-68.5 22
q-40 0 -65.5 -20t-36.5 -55q-3 -9 -5 -19.5t-3.5 -26.5t-2 -40t-0.5 -60t0.5 -60t2 -40t3.5 -26.5t5 -19.5q11 -35 36.5 -55t65.5 -20q43 0 68.5 22t39.5 55q5 10 14 5l109 -49q10 -3 5 -12q-24 -60 -71 -98t-116 -49l-44 -143q-3 -10 -16 -10h-97z" />
    <glyph glyph-name="Egrave" unicode="&#xc8;" horiz-adv-x="565" 
d="M267 754q-10 0 -19 9l-123 116q-4 4 -2 7t7 3h120q11 0 19 -10l95 -115q3 -4 2 -7t-6 -3h-93zM65 670q0 10 10 10h436q10 0 10 -10v-107q0 -10 -10 -10h-293q-6 0 -6 -6v-135q0 -6 6 -6h244q10 0 10 -10v-106q0 -10 -10 -10h-244q-6 0 -6 -6v-141q0 -6 6 -6h293
q10 0 10 -10v-107q0 -10 -10 -10h-436q-10 0 -10 10v660z" />
    <glyph glyph-name="Eacute" unicode="&#xc9;" horiz-adv-x="565" 
d="M214 754q-5 0 -6 3t2 7l95 115q8 10 19 10h120q5 0 7 -3t-2 -7l-123 -116q-9 -9 -19 -9h-93zM65 670q0 10 10 10h436q10 0 10 -10v-107q0 -10 -10 -10h-293q-6 0 -6 -6v-135q0 -6 6 -6h244q10 0 10 -10v-106q0 -10 -10 -10h-244q-6 0 -6 -6v-141q0 -6 6 -6h293
q10 0 10 -10v-107q0 -10 -10 -10h-436q-10 0 -10 10v660z" />
    <glyph glyph-name="Ecircumflex" unicode="&#xca;" horiz-adv-x="565" 
d="M65 670q0 10 10 10h436q10 0 10 -10v-107q0 -10 -10 -10h-293q-6 0 -6 -6v-135q0 -6 6 -6h244q10 0 10 -10v-106q0 -10 -10 -10h-244q-6 0 -6 -6v-141q0 -6 6 -6h293q10 0 10 -10v-107q0 -10 -10 -10h-436q-10 0 -10 10v660zM369 747q-8 0 -12 2t-10 8l-53 54h-2l-52 -54
q-6 -6 -10 -8t-12 -2h-80q-5 0 -6 3t2 7l103 131q7 10 19 10h75q11 0 18 -10l104 -131q3 -4 2 -7t-6 -3h-80z" />
    <glyph glyph-name="Edieresis" unicode="&#xcb;" horiz-adv-x="565" 
d="M349 760q-10 0 -10 10v98q0 10 10 10h90q10 0 10 -10v-98q0 -10 -10 -10h-90zM146 760q-10 0 -10 10v98q0 10 10 10h90q10 0 10 -10v-98q0 -10 -10 -10h-90zM65 670q0 10 10 10h436q10 0 10 -10v-107q0 -10 -10 -10h-293q-6 0 -6 -6v-135q0 -6 6 -6h244q10 0 10 -10v-106
q0 -10 -10 -10h-244q-6 0 -6 -6v-141q0 -6 6 -6h293q10 0 10 -10v-107q0 -10 -10 -10h-436q-10 0 -10 10v660z" />
    <glyph glyph-name="Igrave" unicode="&#xcc;" horiz-adv-x="277" 
d="M65 670q0 10 10 10h127q10 0 10 -10v-660q0 -10 -10 -10h-127q-10 0 -10 10v660zM98 754q-10 0 -19 9l-123 116q-4 4 -2 7t7 3h120q11 0 19 -10l95 -115q3 -4 2 -7t-6 -3h-93z" />
    <glyph glyph-name="Iacute" unicode="&#xcd;" horiz-adv-x="277" 
d="M65 670q0 10 10 10h127q10 0 10 -10v-660q0 -10 -10 -10h-127q-10 0 -10 10v660zM90 754q-5 0 -6 3t2 7l95 115q8 10 19 10h120q5 0 7 -3t-2 -7l-123 -116q-9 -9 -19 -9h-93z" />
    <glyph glyph-name="Icircumflex" unicode="&#xce;" horiz-adv-x="277" 
d="M65 670q0 10 10 10h127q10 0 10 -10v-660q0 -10 -10 -10h-127q-10 0 -10 10v660zM214 747q-8 0 -12 2t-10 8l-53 54h-2l-52 -54q-6 -6 -10 -8t-12 -2h-80q-5 0 -6 3t2 7l103 131q7 10 19 10h75q11 0 18 -10l104 -131q3 -4 2 -7t-6 -3h-80z" />
    <glyph glyph-name="Idieresis" unicode="&#xcf;" horiz-adv-x="277" 
d="M65 670q0 10 10 10h127q10 0 10 -10v-660q0 -10 -10 -10h-127q-10 0 -10 10v660zM195 760q-10 0 -10 10v98q0 10 10 10h90q10 0 10 -10v-98q0 -10 -10 -10h-90zM-8 760q-10 0 -10 10v98q0 10 10 10h90q10 0 10 -10v-98q0 -10 -10 -10h-90z" />
    <glyph glyph-name="Eth" unicode="&#xd0;" horiz-adv-x="628" 
d="M75 0q-10 0 -10 10v273q0 6 -6 6h-25q-10 0 -10 10v88q0 10 10 10h25q6 0 6 6v267q0 10 10 10h253q90 0 150 -38t85 -115q4 -14 7.5 -29.5t6 -36.5t3.5 -50t1 -71t-1 -71t-3.5 -50t-6 -36.5t-7.5 -29.5q-25 -77 -85 -115t-150 -38h-253zM295 131q51 0 82 16.5t44 58.5
q3 7 5 16.5t3.5 24.5t2 37.5t0.5 55.5t-0.5 55t-2 37t-3.5 24.5t-5 17.5q-13 42 -44 58.5t-82 16.5h-77q-6 0 -6 -6v-140q0 -6 6 -6h83q10 0 10 -10v-88q0 -10 -10 -10h-83q-6 0 -6 -6v-146q0 -6 6 -6h77z" />
    <glyph glyph-name="Ntilde" unicode="&#xd1;" horiz-adv-x="655" 
d="M391 748q-23 0 -40 6t-35 15q-14 8 -27.5 13t-30.5 5q-22 0 -38 -9t-33 -22q-4 -3 -6.5 -2t-2.5 4v72q0 12 8 21q16 16 35 25.5t42 9.5t40 -6t35 -15q15 -8 28 -13t30 -5q22 0 38 9t33 22q4 3 7 2t3 -4v-72q0 -12 -9 -21q-15 -16 -34.5 -25.5t-42.5 -9.5zM65 670
q0 10 10 10h120q11 0 17 -10l240 -428h5v428q0 10 10 10h113q10 0 10 -10v-660q0 -10 -10 -10h-119q-11 0 -17 10l-241 427h-5v-427q0 -10 -10 -10h-113q-10 0 -10 10v660z" />
    <glyph glyph-name="Ograve" unicode="&#xd2;" horiz-adv-x="628" 
d="M283 754q-10 0 -19 9l-123 116q-4 4 -2 7t7 3h120q11 0 19 -10l95 -115q3 -4 2 -7t-6 -3h-93zM314 -11q-89 0 -155.5 41t-92.5 124q-6 18 -9.5 35t-5.5 38t-3 48t-1 65t1 65t3 48t5.5 38t9.5 35q26 82 92.5 123.5t155.5 41.5t155.5 -41.5t92.5 -123.5q6 -18 9.5 -35
t5.5 -38t3 -48t1 -65t-1 -65t-3 -48t-5.5 -38t-9.5 -35q-26 -83 -92.5 -124t-155.5 -41zM314 119q42 0 69 20t38 55q3 9 5 20.5t3.5 28t2 40.5t0.5 57t-0.5 57t-2 40.5t-3.5 28t-5 20.5q-11 35 -38 55t-69 20t-69 -20t-38 -55q-3 -9 -5 -20.5t-3.5 -28t-2 -40.5t-0.5 -57
t0.5 -57t2 -40.5t3.5 -28t5 -20.5q11 -35 38 -55t69 -20z" />
    <glyph glyph-name="Oacute" unicode="&#xd3;" horiz-adv-x="628" 
d="M251 754q-5 0 -6 3t2 7l95 115q8 10 19 10h120q5 0 7 -3t-2 -7l-123 -116q-9 -9 -19 -9h-93zM314 -11q-89 0 -155.5 41t-92.5 124q-6 18 -9.5 35t-5.5 38t-3 48t-1 65t1 65t3 48t5.5 38t9.5 35q26 82 92.5 123.5t155.5 41.5t155.5 -41.5t92.5 -123.5q6 -18 9.5 -35
t5.5 -38t3 -48t1 -65t-1 -65t-3 -48t-5.5 -38t-9.5 -35q-26 -83 -92.5 -124t-155.5 -41zM314 119q42 0 69 20t38 55q3 9 5 20.5t3.5 28t2 40.5t0.5 57t-0.5 57t-2 40.5t-3.5 28t-5 20.5q-11 35 -38 55t-69 20t-69 -20t-38 -55q-3 -9 -5 -20.5t-3.5 -28t-2 -40.5t-0.5 -57
t0.5 -57t2 -40.5t3.5 -28t5 -20.5q11 -35 38 -55t69 -20z" />
    <glyph glyph-name="Ocircumflex" unicode="&#xd4;" horiz-adv-x="628" 
d="M314 -11q-89 0 -155.5 41t-92.5 124q-6 18 -9.5 35t-5.5 38t-3 48t-1 65t1 65t3 48t5.5 38t9.5 35q26 82 92.5 123.5t155.5 41.5t155.5 -41.5t92.5 -123.5q6 -18 9.5 -35t5.5 -38t3 -48t1 -65t-1 -65t-3 -48t-5.5 -38t-9.5 -35q-26 -83 -92.5 -124t-155.5 -41zM314 119
q42 0 69 20t38 55q3 9 5 20.5t3.5 28t2 40.5t0.5 57t-0.5 57t-2 40.5t-3.5 28t-5 20.5q-11 35 -38 55t-69 20t-69 -20t-38 -55q-3 -9 -5 -20.5t-3.5 -28t-2 -40.5t-0.5 -57t0.5 -57t2 -40.5t3.5 -28t5 -20.5q11 -35 38 -55t69 -20zM389 747q-8 0 -12 2t-10 8l-53 54h-2
l-52 -54q-6 -6 -10 -8t-12 -2h-80q-5 0 -6 3t2 7l103 131q7 10 19 10h75q11 0 18 -10l104 -131q3 -4 2 -7t-6 -3h-80z" />
    <glyph glyph-name="Otilde" unicode="&#xd5;" horiz-adv-x="628" 
d="M377 748q-23 0 -40 6t-35 15q-14 8 -27.5 13t-30.5 5q-22 0 -38 -9t-33 -22q-4 -3 -6.5 -2t-2.5 4v72q0 12 8 21q16 16 35 25.5t42 9.5t40 -6t35 -15q15 -8 28 -13t30 -5q22 0 38 9t33 22q4 3 7 2t3 -4v-72q0 -12 -9 -21q-15 -16 -34.5 -25.5t-42.5 -9.5zM314 -11
q-89 0 -155.5 41t-92.5 124q-6 18 -9.5 35t-5.5 38t-3 48t-1 65t1 65t3 48t5.5 38t9.5 35q26 82 92.5 123.5t155.5 41.5t155.5 -41.5t92.5 -123.5q6 -18 9.5 -35t5.5 -38t3 -48t1 -65t-1 -65t-3 -48t-5.5 -38t-9.5 -35q-26 -83 -92.5 -124t-155.5 -41zM314 119q42 0 69 20
t38 55q3 9 5 20.5t3.5 28t2 40.5t0.5 57t-0.5 57t-2 40.5t-3.5 28t-5 20.5q-11 35 -38 55t-69 20t-69 -20t-38 -55q-3 -9 -5 -20.5t-3.5 -28t-2 -40.5t-0.5 -57t0.5 -57t2 -40.5t3.5 -28t5 -20.5q11 -35 38 -55t69 -20z" />
    <glyph glyph-name="Odieresis" unicode="&#xd6;" horiz-adv-x="628" 
d="M370 760q-10 0 -10 10v98q0 10 10 10h90q10 0 10 -10v-98q0 -10 -10 -10h-90zM167 760q-10 0 -10 10v98q0 10 10 10h90q10 0 10 -10v-98q0 -10 -10 -10h-90zM314 -11q-89 0 -155.5 41t-92.5 124q-6 18 -9.5 35t-5.5 38t-3 48t-1 65t1 65t3 48t5.5 38t9.5 35
q26 82 92.5 123.5t155.5 41.5t155.5 -41.5t92.5 -123.5q6 -18 9.5 -35t5.5 -38t3 -48t1 -65t-1 -65t-3 -48t-5.5 -38t-9.5 -35q-26 -83 -92.5 -124t-155.5 -41zM314 119q42 0 69 20t38 55q3 9 5 20.5t3.5 28t2 40.5t0.5 57t-0.5 57t-2 40.5t-3.5 28t-5 20.5q-11 35 -38 55
t-69 20t-69 -20t-38 -55q-3 -9 -5 -20.5t-3.5 -28t-2 -40.5t-0.5 -57t0.5 -57t2 -40.5t3.5 -28t5 -20.5q11 -35 38 -55t69 -20z" />
    <glyph glyph-name="multiply" unicode="&#xd7;" 
d="M413 74q-7 -9 -14 0l-117 116q-4 4 -8 0l-118 -116q-7 -9 -14 0l-67 67q-7 7 0 14l117 117q4 4 0 8l-117 117q-7 7 0 14l68 68q7 7 14 0l117 -117q4 -5 9 0l116 117q7 7 14 0l67 -67q6 -8 0 -14l-116 -117q-5 -5 0 -9l116 -117q7 -7 0 -14z" />
    <glyph glyph-name="Oslash" unicode="&#xd8;" horiz-adv-x="628" 
d="M50 -30q-5 0 -6 3t1 7l61 97q-13 17 -23 35.5t-17 41.5q-6 18 -9.5 35t-5.5 38t-3 48t-1 65t1 65t3 48t5.5 38t9.5 35q26 82 92.5 123.5t155.5 41.5q87 0 149 -38l30 48q5 9 15 9h70q5 0 6 -3t-1 -7l-61 -98q24 -30 40 -76q6 -18 9.5 -35t5.5 -38t3 -48t1 -65t-1 -65
t-3 -48t-5.5 -38t-9.5 -35q-26 -83 -92.5 -124t-155.5 -41q-88 0 -149 37l-30 -47q-5 -9 -15 -9h-70zM194 340q0 -48 1.5 -75t3.5 -44l189 317q-30 24 -74 24q-42 0 -69.5 -20.5t-39.5 -55.5q-3 -10 -5 -21t-3.5 -27.5t-2 -40t-0.5 -57.5zM314 118q42 0 69.5 20.5t39.5 55.5
q3 10 5 21t3.5 27.5t2 39.5t0.5 58q0 46 -1.5 73t-3.5 44l-189 -316q29 -23 74 -23z" />
    <glyph glyph-name="Ugrave" unicode="&#xd9;" horiz-adv-x="645" 
d="M290 754q-10 0 -19 9l-123 116q-4 4 -2 7t7 3h120q11 0 19 -10l95 -115q3 -4 2 -7t-6 -3h-93zM323 -11q-57 0 -105 17t-82.5 50t-54 82t-19.5 112v420q0 10 10 10h127q10 0 10 -10v-424q0 -61 31 -94t83 -33q51 0 82 33t31 94v424q0 10 10 10h127q10 0 10 -10v-420
q0 -63 -19.5 -112t-54 -82t-82 -50t-104.5 -17z" />
    <glyph glyph-name="Uacute" unicode="&#xda;" horiz-adv-x="645" 
d="M264 754q-5 0 -6 3t2 7l95 115q8 10 19 10h120q5 0 7 -3t-2 -7l-123 -116q-9 -9 -19 -9h-93zM323 -11q-57 0 -105 17t-82.5 50t-54 82t-19.5 112v420q0 10 10 10h127q10 0 10 -10v-424q0 -61 31 -94t83 -33q51 0 82 33t31 94v424q0 10 10 10h127q10 0 10 -10v-420
q0 -63 -19.5 -112t-54 -82t-82 -50t-104.5 -17z" />
    <glyph glyph-name="Ucircumflex" unicode="&#xdb;" horiz-adv-x="645" 
d="M323 -11q-57 0 -105 17t-82.5 50t-54 82t-19.5 112v420q0 10 10 10h127q10 0 10 -10v-424q0 -61 31 -94t83 -33q51 0 82 33t31 94v424q0 10 10 10h127q10 0 10 -10v-420q0 -63 -19.5 -112t-54 -82t-82 -50t-104.5 -17zM397 747q-8 0 -12 2t-10 8l-53 54h-2l-52 -54
q-6 -6 -10 -8t-12 -2h-80q-5 0 -6 3t2 7l103 131q7 10 19 10h75q11 0 18 -10l104 -131q3 -4 2 -7t-6 -3h-80z" />
    <glyph glyph-name="Udieresis" unicode="&#xdc;" horiz-adv-x="645" 
d="M379 760q-10 0 -10 10v98q0 10 10 10h90q10 0 10 -10v-98q0 -10 -10 -10h-90zM176 760q-10 0 -10 10v98q0 10 10 10h90q10 0 10 -10v-98q0 -10 -10 -10h-90zM323 -11q-57 0 -105 17t-82.5 50t-54 82t-19.5 112v420q0 10 10 10h127q10 0 10 -10v-424q0 -61 31 -94t83 -33
q51 0 82 33t31 94v424q0 10 10 10h127q10 0 10 -10v-420q0 -63 -19.5 -112t-54 -82t-82 -50t-104.5 -17z" />
    <glyph glyph-name="Yacute" unicode="&#xdd;" horiz-adv-x="568" 
d="M220 0q-10 0 -10 10v261l-201 399q-4 10 7 10h130q11 0 15 -10l123 -248h3l123 248q4 10 15 10h126q5 0 7 -3t0 -7l-201 -399v-261q0 -10 -10 -10h-127zM232 754q-5 0 -6 3t2 7l95 115q8 10 19 10h120q5 0 7 -3t-2 -7l-123 -116q-9 -9 -19 -9h-93z" />
    <glyph glyph-name="Thorn" unicode="&#xde;" horiz-adv-x="605" 
d="M75 0q-10 0 -10 10v660q0 10 10 10h127q10 0 10 -10v-92q0 -6 6 -6h121q55 0 99 -16t75 -45t47 -69t16 -89q0 -48 -16.5 -88.5t-47 -69t-74.5 -44.5t-99 -16h-121q-6 0 -6 -6v-119q0 -10 -10 -10h-127zM330 262q47 0 73 24.5t26 66.5t-26 67t-73 25h-112q-6 0 -6 -6v-171
q0 -6 6 -6h112z" />
    <glyph glyph-name="germandbls" unicode="&#xdf;" horiz-adv-x="562" 
d="M286 -4q-10 0 -10 10v95q0 10 10 10h25q26 0 41 8.5t23 30.5q1 3 2 8t1.5 13t0.5 21.5v33.5q0 39 -1 55t-4 25q-14 44 -73 44h-14q-10 0 -10 10v94q0 10 10 10h24q59 0 59 55q0 57 -79 57q-47 0 -67.5 -21t-20.5 -67v-478q0 -10 -10 -10h-120q-10 0 -10 10v475
q0 97 53 151.5t173 54.5q106 0 163 -43.5t57 -123.5q0 -73 -56 -112v-2q19 -11 32.5 -26.5t21.5 -40.5q3 -9 5 -19t3.5 -23.5t2.5 -32t1 -43.5q0 -29 -1 -49.5t-2.5 -35t-4 -25t-5.5 -20.5q-17 -54 -62.5 -76.5t-122.5 -22.5h-35z" />
    <glyph glyph-name="agrave" unicode="&#xe0;" horiz-adv-x="528" 
d="M347 0q-10 0 -10 10v32h-1q-19 -24 -51 -38.5t-82 -14.5q-32 0 -61.5 8.5t-51.5 26.5t-35 46t-13 67q0 80 55.5 118t145.5 38h86q6 0 6 6v18q0 34 -20.5 50t-78.5 16q-37 0 -64 -9t-44 -22q-8 -6 -13 2l-45 79q-5 9 3 14q31 22 75.5 35t104.5 13q59 0 100 -10.5t66.5 -32
t37 -54.5t11.5 -78v-310q0 -10 -10 -10h-111zM245 94q90 0 90 67v33q0 6 -6 6h-68q-86 0 -86 -55q0 -51 70 -51zM250 551q-12 0 -19 10l-99 130q-3 4 -1.5 7t6.5 3h116q12 0 18 -10l76 -130q5 -10 -5 -10h-92z" />
    <glyph glyph-name="aacute" unicode="&#xe1;" horiz-adv-x="528" 
d="M347 0q-10 0 -10 10v32h-1q-19 -24 -51 -38.5t-82 -14.5q-32 0 -61.5 8.5t-51.5 26.5t-35 46t-13 67q0 80 55.5 118t145.5 38h86q6 0 6 6v18q0 34 -20.5 50t-78.5 16q-37 0 -64 -9t-44 -22q-8 -6 -13 2l-45 79q-5 9 3 14q31 22 75.5 35t104.5 13q59 0 100 -10.5t66.5 -32
t37 -54.5t11.5 -78v-310q0 -10 -10 -10h-111zM245 94q90 0 90 67v33q0 6 -6 6h-68q-86 0 -86 -55q0 -51 70 -51zM207 551q-11 0 -6 10l77 130q6 10 18 10h115q5 0 6.5 -3t-1.5 -7l-99 -130q-8 -10 -19 -10h-91z" />
    <glyph glyph-name="acircumflex" unicode="&#xe2;" horiz-adv-x="528" 
d="M347 0q-10 0 -10 10v32h-1q-19 -24 -51 -38.5t-82 -14.5q-32 0 -61.5 8.5t-51.5 26.5t-35 46t-13 67q0 80 55.5 118t145.5 38h86q6 0 6 6v18q0 34 -20.5 50t-78.5 16q-37 0 -64 -9t-44 -22q-8 -6 -13 2l-45 79q-5 9 3 14q31 22 75.5 35t104.5 13q59 0 100 -10.5t66.5 -32
t37 -54.5t11.5 -78v-310q0 -10 -10 -10h-111zM245 94q90 0 90 67v33q0 6 -6 6h-68q-86 0 -86 -55q0 -51 70 -51zM338 550q-12 0 -22 10l-52 54h-2l-53 -54q-6 -6 -10 -8t-12 -2h-79q-5 0 -6.5 3t1.5 7l104 131q7 10 18 10h75q12 0 19 -10l103 -131q3 -4 2 -7t-6 -3h-80z" />
    <glyph glyph-name="atilde" unicode="&#xe3;" horiz-adv-x="528" 
d="M347 0q-10 0 -10 10v32h-1q-19 -24 -51 -38.5t-82 -14.5q-32 0 -61.5 8.5t-51.5 26.5t-35 46t-13 67q0 80 55.5 118t145.5 38h86q6 0 6 6v18q0 34 -20.5 50t-78.5 16q-37 0 -64 -9t-44 -22q-8 -6 -13 2l-45 79q-5 9 3 14q31 22 75.5 35t104.5 13q59 0 100 -10.5t66.5 -32
t37 -54.5t11.5 -78v-310q0 -10 -10 -10h-111zM245 94q90 0 90 67v33q0 6 -6 6h-68q-86 0 -86 -55q0 -51 70 -51zM327 552q-23 0 -40 6.5t-35 15.5q-14 8 -27.5 13t-30.5 5q-22 0 -38 -9t-33 -23q-9 -7 -9 3v72q0 11 8 20q16 16 35 26t42 10t40 -6.5t35 -15.5q15 -8 28 -13
t30 -5q22 0 38 9t33 23q4 3 7 2t3 -5v-72q0 -11 -9 -20q-15 -16 -34.5 -26t-42.5 -10z" />
    <glyph glyph-name="adieresis" unicode="&#xe4;" horiz-adv-x="528" 
d="M347 0q-10 0 -10 10v32h-1q-19 -24 -51 -38.5t-82 -14.5q-32 0 -61.5 8.5t-51.5 26.5t-35 46t-13 67q0 80 55.5 118t145.5 38h86q6 0 6 6v18q0 34 -20.5 50t-78.5 16q-37 0 -64 -9t-44 -22q-8 -6 -13 2l-45 79q-5 9 3 14q31 22 75.5 35t104.5 13q59 0 100 -10.5t66.5 -32
t37 -54.5t11.5 -78v-310q0 -10 -10 -10h-111zM245 94q90 0 90 67v33q0 6 -6 6h-68q-86 0 -86 -55q0 -51 70 -51zM317 561q-10 0 -10 10v99q0 10 10 10h93q10 0 10 -10v-99q0 -10 -10 -10h-93zM117 561q-10 0 -10 10v99q0 10 10 10h92q10 0 10 -10v-99q0 -10 -10 -10h-92z
" />
    <glyph glyph-name="aring" unicode="&#xe5;" horiz-adv-x="528" 
d="M347 0q-10 0 -10 10v32h-1q-19 -24 -51 -38.5t-82 -14.5q-32 0 -61.5 8.5t-51.5 26.5t-35 46t-13 67q0 80 55.5 118t145.5 38h86q6 0 6 6v18q0 34 -20.5 50t-78.5 16q-37 0 -64 -9t-44 -22q-8 -6 -13 2l-45 79q-5 9 3 14q31 22 75.5 35t104.5 13q59 0 100 -10.5t66.5 -32
t37 -54.5t11.5 -78v-310q0 -10 -10 -10h-111zM245 94q90 0 90 67v33q0 6 -6 6h-68q-86 0 -86 -55q0 -51 70 -51zM266 524q-46 0 -76.5 30t-30.5 76q0 47 30.5 77t76.5 30t76.5 -30t30.5 -77q0 -46 -30.5 -76t-76.5 -30zM266 582q20 0 33 14t13 34q0 21 -13 35t-33 14
t-33.5 -14t-13.5 -35q0 -20 13.5 -34t33.5 -14z" />
    <glyph glyph-name="ae" unicode="&#xe6;" horiz-adv-x="816" 
d="M560 -11q-55 0 -97.5 19.5t-68.5 51.5h-1q-25 -38 -70.5 -54.5t-110.5 -16.5q-37 0 -68 9t-53.5 27t-35.5 46t-13 66q0 80 55.5 118t145.5 38h86q6 0 6 6v19q0 34 -20.5 49.5t-78.5 15.5q-37 0 -64 -9t-44 -22q-8 -6 -13 2l-45 79q-5 9 3 14q31 22 75.5 35t104.5 13
q54 0 96 -11.5t66 -33.5h2q23 20 58 32.5t77 12.5q81 0 134.5 -36t74.5 -100q4 -12 7 -25.5t5 -30.5t3 -39.5t1 -53.5q0 -10 -11 -10h-293q-6 0 -6 -6q0 -5 2 -13t4 -14q21 -64 101 -64q35 0 62.5 12t47.5 31q8 6 14 0l66 -62q8 -7 1 -14q-35 -37 -87 -59t-118 -22zM633 293
q6 0 6 6q0 11 -1.5 19.5t-3.5 16.5q-8 25 -29.5 39t-51.5 14q-32 0 -52.5 -14.5t-28.5 -38.5q-3 -9 -4 -17t-1 -19q0 -6 6 -6h160zM245 94q90 0 90 67v33q0 6 -6 6h-68q-86 0 -86 -55q0 -51 70 -51z" />
    <glyph glyph-name="ccedilla" unicode="&#xe7;" horiz-adv-x="481" 
d="M151 -160q-10 0 -7 10l58 144q-56 14 -93.5 45.5t-54.5 86.5q-8 22 -11.5 50t-3.5 66t3.5 66t11.5 50q22 68 77 102.5t132 34.5q63 0 110 -25.5t73 -65.5q5 -8 -2 -14l-87 -57q-9 -6 -15 2q-16 22 -33.5 32t-43.5 10q-28 0 -47.5 -13t-27.5 -39q-5 -15 -7 -34t-2 -49
t2 -49t7 -34q8 -26 27.5 -39t47.5 -13q26 0 43.5 10t33.5 32q6 8 15 2l87 -57q7 -6 2 -14q-21 -32 -57 -55.5t-81 -31.5l-44 -143q-3 -10 -16 -10h-97z" />
    <glyph glyph-name="egrave" unicode="&#xe8;" horiz-adv-x="527" 
d="M270 -11q-83 0 -138 36t-76 102q-8 23 -12.5 50t-4.5 65t4 65.5t12 50.5q21 66 75.5 101.5t132.5 35.5q81 0 134.5 -36t74.5 -100q4 -12 7 -25.5t5 -30.5t3 -39.5t1 -53.5q0 -10 -11 -10h-293q-6 0 -6 -6q1 -15 6 -27q10 -32 36 -48t64 -16q36 0 63 11.5t48 31.5
q9 7 14 0l66 -62q8 -7 1 -14q-35 -37 -87 -59t-119 -22zM344 293q6 0 6 6q0 11 -1.5 19.5t-3.5 16.5q-8 25 -29.5 39t-51.5 14t-51.5 -14t-29.5 -39q-2 -8 -3.5 -16.5t-1.5 -19.5q0 -6 6 -6h160zM236 551q-12 0 -19 10l-99 130q-3 4 -1.5 7t6.5 3h116q12 0 18 -10l76 -130
q5 -10 -5 -10h-92z" />
    <glyph glyph-name="eacute" unicode="&#xe9;" horiz-adv-x="527" 
d="M204 551q-11 0 -6 10l77 130q6 10 18 10h115q5 0 6.5 -3t-1.5 -7l-99 -130q-8 -10 -19 -10h-91zM270 -11q-83 0 -138 36t-76 102q-8 23 -12.5 50t-4.5 65t4 65.5t12 50.5q21 66 75.5 101.5t132.5 35.5q81 0 134.5 -36t74.5 -100q4 -12 7 -25.5t5 -30.5t3 -39.5t1 -53.5
q0 -10 -11 -10h-293q-6 0 -6 -6q1 -15 6 -27q10 -32 36 -48t64 -16q36 0 63 11.5t48 31.5q9 7 14 0l66 -62q8 -7 1 -14q-35 -37 -87 -59t-119 -22zM344 293q6 0 6 6q0 11 -1.5 19.5t-3.5 16.5q-8 25 -29.5 39t-51.5 14t-51.5 -14t-29.5 -39q-2 -8 -3.5 -16.5t-1.5 -19.5
q0 -6 6 -6h160z" />
    <glyph glyph-name="ecircumflex" unicode="&#xea;" horiz-adv-x="527" 
d="M338 550q-12 0 -22 10l-52 54h-2l-53 -54q-6 -6 -10 -8t-12 -2h-79q-5 0 -6.5 3t1.5 7l104 131q7 10 18 10h75q12 0 19 -10l103 -131q3 -4 2 -7t-6 -3h-80zM270 -11q-83 0 -138 36t-76 102q-8 23 -12.5 50t-4.5 65t4 65.5t12 50.5q21 66 75.5 101.5t132.5 35.5
q81 0 134.5 -36t74.5 -100q4 -12 7 -25.5t5 -30.5t3 -39.5t1 -53.5q0 -10 -11 -10h-293q-6 0 -6 -6q1 -15 6 -27q10 -32 36 -48t64 -16q36 0 63 11.5t48 31.5q9 7 14 0l66 -62q8 -7 1 -14q-35 -37 -87 -59t-119 -22zM344 293q6 0 6 6q0 11 -1.5 19.5t-3.5 16.5
q-8 25 -29.5 39t-51.5 14t-51.5 -14t-29.5 -39q-2 -8 -3.5 -16.5t-1.5 -19.5q0 -6 6 -6h160z" />
    <glyph glyph-name="edieresis" unicode="&#xeb;" horiz-adv-x="527" 
d="M316 561q-10 0 -10 10v99q0 10 10 10h93q10 0 10 -10v-99q0 -10 -10 -10h-93zM116 561q-10 0 -10 10v99q0 10 10 10h92q10 0 10 -10v-99q0 -10 -10 -10h-92zM270 -11q-83 0 -138 36t-76 102q-8 23 -12.5 50t-4.5 65t4 65.5t12 50.5q21 66 75.5 101.5t132.5 35.5
q81 0 134.5 -36t74.5 -100q4 -12 7 -25.5t5 -30.5t3 -39.5t1 -53.5q0 -10 -11 -10h-293q-6 0 -6 -6q1 -15 6 -27q10 -32 36 -48t64 -16q36 0 63 11.5t48 31.5q9 7 14 0l66 -62q8 -7 1 -14q-35 -37 -87 -59t-119 -22zM344 293q6 0 6 6q0 11 -1.5 19.5t-3.5 16.5
q-8 25 -29.5 39t-51.5 14t-51.5 -14t-29.5 -39q-2 -8 -3.5 -16.5t-1.5 -19.5q0 -6 6 -6h160z" />
    <glyph glyph-name="igrave" unicode="&#xec;" horiz-adv-x="266" 
d="M73 0q-10 0 -10 10v464q0 10 10 10h120q10 0 10 -10v-464q0 -10 -10 -10h-120zM91 551q-12 0 -19 10l-99 130q-3 4 -1.5 7t6.5 3h116q12 0 18 -10l76 -130q5 -10 -5 -10h-92z" />
    <glyph glyph-name="iacute" unicode="&#xed;" horiz-adv-x="266" 
d="M84 551q-11 0 -6 10l77 130q6 10 18 10h115q5 0 6.5 -3t-1.5 -7l-99 -130q-8 -10 -19 -10h-91zM73 0q-10 0 -10 10v464q0 10 10 10h120q10 0 10 -10v-464q0 -10 -10 -10h-120z" />
    <glyph glyph-name="icircumflex" unicode="&#xee;" horiz-adv-x="266" 
d="M208 550q-12 0 -22 10l-52 54h-2l-53 -54q-6 -6 -10 -8t-12 -2h-79q-5 0 -6.5 3t1.5 7l104 131q7 10 18 10h75q12 0 19 -10l103 -131q3 -4 2 -7t-6 -3h-80zM73 0q-10 0 -10 10v464q0 10 10 10h120q10 0 10 -10v-464q0 -10 -10 -10h-120z" />
    <glyph glyph-name="idieresis" unicode="&#xef;" horiz-adv-x="266" 
d="M187 561q-10 0 -10 10v99q0 10 10 10h93q10 0 10 -10v-99q0 -10 -10 -10h-93zM-13 561q-10 0 -10 10v99q0 10 10 10h92q10 0 10 -10v-99q0 -10 -10 -10h-92zM73 0q-10 0 -10 10v464q0 10 10 10h120q10 0 10 -10v-464q0 -10 -10 -10h-120z" />
    <glyph glyph-name="eth" unicode="&#xf0;" horiz-adv-x="530" 
d="M355 552l20 -28q30 -41 51.5 -77.5t36 -71t21.5 -69t7 -71.5q0 -36 -3.5 -61.5t-10.5 -45.5q-22 -66 -77.5 -102.5t-133.5 -36.5q-81 0 -135.5 35.5t-75.5 99.5q-7 21 -11 46.5t-4 51.5t3.5 53t10.5 49q19 59 63.5 92.5t106.5 33.5q22 0 37 -4t27 -12h2l-59 81l-94 -28
q-9 -2 -12 7l-20 65q-3 10 7 13l64 19l-57 79q-2 4 -0.5 7t6.5 3h123q12 0 19 -10l31 -43l90 27q10 3 13 -6l20 -65q3 -10 -7 -13zM266 104q29 0 50 14t29 41q10 27 10 67q0 19 -2.5 35.5t-7.5 31.5q-17 56 -79 56q-30 0 -51 -14.5t-29 -41.5q-5 -15 -7.5 -31.5t-2.5 -35.5
q0 -40 10 -67q8 -27 29.5 -41t50.5 -14z" />
    <glyph glyph-name="ntilde" unicode="&#xf1;" horiz-adv-x="553" 
d="M364 0q-10 0 -10 10v278q0 40 -18.5 64t-56.5 24q-36 0 -56 -24t-20 -64v-278q0 -10 -10 -10h-120q-10 0 -10 10v464q0 10 10 10h120q10 0 10 -10v-34h1q17 23 47.5 39t77.5 16q40 0 71 -13t52 -37t31.5 -57t10.5 -73v-305q0 -10 -10 -10h-120zM339 552q-23 0 -40 6.5
t-35 15.5q-14 8 -27.5 13t-30.5 5q-22 0 -38 -9t-33 -23q-9 -7 -9 3v72q0 11 8 20q16 16 35 26t42 10t40 -6.5t35 -15.5q15 -8 28 -13t30 -5q22 0 38 9t33 23q4 3 7 2t3 -5v-72q0 -11 -9 -20q-15 -16 -34.5 -26t-42.5 -10z" />
    <glyph glyph-name="ograve" unicode="&#xf2;" horiz-adv-x="530" 
d="M265 -11q-77 0 -133 35t-77 101q-8 26 -12 53.5t-4 63.5t4 63.5t12 53.5q21 66 77 101t133 35t133 -35t77 -101q8 -26 12 -53.5t4 -63.5t-4 -63.5t-12 -53.5q-21 -66 -77 -101t-133 -35zM265 107q58 0 75 52q5 17 7 34.5t2 48.5t-2 48.5t-7 34.5q-17 52 -75 52t-75 -52
q-5 -17 -7 -34.5t-2 -48.5t2 -48.5t7 -34.5q17 -52 75 -52zM232 551q-12 0 -19 10l-99 130q-3 4 -1.5 7t6.5 3h116q12 0 18 -10l76 -130q5 -10 -5 -10h-92z" />
    <glyph glyph-name="oacute" unicode="&#xf3;" horiz-adv-x="530" 
d="M209 551q-11 0 -6 10l77 130q6 10 18 10h115q5 0 6.5 -3t-1.5 -7l-99 -130q-8 -10 -19 -10h-91zM265 -11q-77 0 -133 35t-77 101q-8 26 -12 53.5t-4 63.5t4 63.5t12 53.5q21 66 77 101t133 35t133 -35t77 -101q8 -26 12 -53.5t4 -63.5t-4 -63.5t-12 -53.5
q-21 -66 -77 -101t-133 -35zM265 107q58 0 75 52q5 17 7 34.5t2 48.5t-2 48.5t-7 34.5q-17 52 -75 52t-75 -52q-5 -17 -7 -34.5t-2 -48.5t2 -48.5t7 -34.5q17 -52 75 -52z" />
    <glyph glyph-name="ocircumflex" unicode="&#xf4;" horiz-adv-x="530" 
d="M340 550q-12 0 -22 10l-52 54h-2l-53 -54q-6 -6 -10 -8t-12 -2h-79q-5 0 -6.5 3t1.5 7l104 131q7 10 18 10h75q12 0 19 -10l103 -131q3 -4 2 -7t-6 -3h-80zM265 -11q-77 0 -133 35t-77 101q-8 26 -12 53.5t-4 63.5t4 63.5t12 53.5q21 66 77 101t133 35t133 -35t77 -101
q8 -26 12 -53.5t4 -63.5t-4 -63.5t-12 -53.5q-21 -66 -77 -101t-133 -35zM265 107q58 0 75 52q5 17 7 34.5t2 48.5t-2 48.5t-7 34.5q-17 52 -75 52t-75 -52q-5 -17 -7 -34.5t-2 -48.5t2 -48.5t7 -34.5q17 -52 75 -52z" />
    <glyph glyph-name="otilde" unicode="&#xf5;" horiz-adv-x="530" 
d="M265 -11q-77 0 -133 35t-77 101q-8 26 -12 53.5t-4 63.5t4 63.5t12 53.5q21 66 77 101t133 35t133 -35t77 -101q8 -26 12 -53.5t4 -63.5t-4 -63.5t-12 -53.5q-21 -66 -77 -101t-133 -35zM265 107q58 0 75 52q5 17 7 34.5t2 48.5t-2 48.5t-7 34.5q-17 52 -75 52t-75 -52
q-5 -17 -7 -34.5t-2 -48.5t2 -48.5t7 -34.5q17 -52 75 -52zM328 552q-23 0 -40 6.5t-35 15.5q-14 8 -27.5 13t-30.5 5q-22 0 -38 -9t-33 -23q-9 -7 -9 3v72q0 11 8 20q16 16 35 26t42 10t40 -6.5t35 -15.5q15 -8 28 -13t30 -5q22 0 38 9t33 23q4 3 7 2t3 -5v-72
q0 -11 -9 -20q-15 -16 -34.5 -26t-42.5 -10z" />
    <glyph glyph-name="odieresis" unicode="&#xf6;" horiz-adv-x="530" 
d="M318 561q-10 0 -10 10v99q0 10 10 10h93q10 0 10 -10v-99q0 -10 -10 -10h-93zM118 561q-10 0 -10 10v99q0 10 10 10h92q10 0 10 -10v-99q0 -10 -10 -10h-92zM265 -11q-77 0 -133 35t-77 101q-8 26 -12 53.5t-4 63.5t4 63.5t12 53.5q21 66 77 101t133 35t133 -35t77 -101
q8 -26 12 -53.5t4 -63.5t-4 -63.5t-12 -53.5q-21 -66 -77 -101t-133 -35zM265 107q58 0 75 52q5 17 7 34.5t2 48.5t-2 48.5t-7 34.5q-17 52 -75 52t-75 -52q-5 -17 -7 -34.5t-2 -48.5t2 -48.5t7 -34.5q17 -52 75 -52z" />
    <glyph glyph-name="divide" unicode="&#xf7;" 
d="M278 387q-32 0 -54 22t-22 54t22 54t54 22t54 -22t22 -54t-22 -54t-54 -22zM61 217q-10 0 -10 10v98q0 10 10 10h434q10 0 10 -10v-98q0 -10 -10 -10h-434zM278 13q-32 0 -54 22t-22 54t22 54t54 22t54 -22t22 -54t-22 -54t-54 -22z" />
    <glyph glyph-name="oslash" unicode="&#xf8;" horiz-adv-x="530" 
d="M265 -11q-71 0 -123 29l-28 -38q-7 -10 -19 -10h-51q-5 0 -6 3t2 7l54 75q-13 14 -23 32t-16 38q-8 26 -12 53.5t-4 63.5t4 63.5t12 53.5q21 66 77 101t133 35q72 0 123 -30l29 39q7 10 19 10h50q5 0 6 -3t-1 -7l-56 -76q26 -28 40 -69q8 -26 12 -53.5t4 -63.5t-4 -63.5
t-12 -53.5q-21 -66 -77 -101t-133 -35zM179 242q0 -44 4 -67l131 189q-22 14 -49 14q-28 0 -48.5 -13t-28.5 -39q-5 -17 -7 -35t-2 -49zM265 106q28 0 48.5 13t28.5 39q5 17 7 35t2 49q0 42 -4 65l-130 -188q19 -13 48 -13z" />
    <glyph glyph-name="ugrave" unicode="&#xf9;" horiz-adv-x="549" 
d="M356 0q-10 0 -10 10v35h-1q-19 -25 -48.5 -40.5t-75.5 -15.5q-40 0 -70.5 13.5t-51 37.5t-31 57t-10.5 72v305q0 10 10 10h120q10 0 10 -10v-278q0 -39 18.5 -63.5t55.5 -24.5q36 0 55 24t19 64v278q0 10 10 10h120q10 0 10 -10v-464q0 -10 -10 -10h-120zM240 551
q-12 0 -19 10l-99 130q-3 4 -1.5 7t6.5 3h116q12 0 18 -10l76 -130q5 -10 -5 -10h-92z" />
    <glyph glyph-name="uacute" unicode="&#xfa;" horiz-adv-x="549" 
d="M218 551q-11 0 -6 10l77 130q6 10 18 10h115q5 0 6.5 -3t-1.5 -7l-99 -130q-8 -10 -19 -10h-91zM356 0q-10 0 -10 10v35h-1q-19 -25 -48.5 -40.5t-75.5 -15.5q-40 0 -70.5 13.5t-51 37.5t-31 57t-10.5 72v305q0 10 10 10h120q10 0 10 -10v-278q0 -39 18.5 -63.5
t55.5 -24.5q36 0 55 24t19 64v278q0 10 10 10h120q10 0 10 -10v-464q0 -10 -10 -10h-120z" />
    <glyph glyph-name="ucircumflex" unicode="&#xfb;" horiz-adv-x="549" 
d="M349 550q-12 0 -22 10l-52 54h-2l-53 -54q-6 -6 -10 -8t-12 -2h-79q-5 0 -6.5 3t1.5 7l104 131q7 10 18 10h75q12 0 19 -10l103 -131q3 -4 2 -7t-6 -3h-80zM356 0q-10 0 -10 10v35h-1q-19 -25 -48.5 -40.5t-75.5 -15.5q-40 0 -70.5 13.5t-51 37.5t-31 57t-10.5 72v305
q0 10 10 10h120q10 0 10 -10v-278q0 -39 18.5 -63.5t55.5 -24.5q36 0 55 24t19 64v278q0 10 10 10h120q10 0 10 -10v-464q0 -10 -10 -10h-120z" />
    <glyph glyph-name="udieresis" unicode="&#xfc;" horiz-adv-x="549" 
d="M328 561q-10 0 -10 10v99q0 10 10 10h93q10 0 10 -10v-99q0 -10 -10 -10h-93zM128 561q-10 0 -10 10v99q0 10 10 10h92q10 0 10 -10v-99q0 -10 -10 -10h-92zM356 0q-10 0 -10 10v35h-1q-19 -25 -48.5 -40.5t-75.5 -15.5q-40 0 -70.5 13.5t-51 37.5t-31 57t-10.5 72v305
q0 10 10 10h120q10 0 10 -10v-278q0 -39 18.5 -63.5t55.5 -24.5q36 0 55 24t19 64v278q0 10 10 10h120q10 0 10 -10v-464q0 -10 -10 -10h-120z" />
    <glyph glyph-name="yacute" unicode="&#xfd;" horiz-adv-x="507" 
d="M93 -180q-10 0 -10 10v98q0 10 10 10h21q26 0 41.5 11.5t24.5 38.5l13 36l-180 450q-3 10 8 10h128q9 0 12 -10l97 -280h2l90 280q3 10 12 10h124q11 0 8 -10l-196 -515q-15 -40 -31.5 -67t-36.5 -43t-45 -22.5t-58 -6.5h-34zM203 551q-11 0 -6 10l77 130q6 10 18 10h115
q5 0 6.5 -3t-1.5 -7l-99 -130q-8 -10 -19 -10h-91z" />
    <glyph glyph-name="thorn" unicode="&#xfe;" horiz-adv-x="551" 
d="M73 -180q-10 0 -10 10v840q0 10 10 10h120q10 0 10 -10v-231h1q17 25 48 40.5t79 15.5q61 0 103 -29t61 -87q9 -29 13 -59t4 -78q0 -47 -4 -77.5t-13 -59.5q-19 -57 -61 -86.5t-103 -29.5q-48 0 -79 15.5t-48 40.5h-1v-215q0 -10 -10 -10h-120zM286 107q58 0 75 52
q5 14 7 32.5t2 50.5t-2 50.5t-7 32.5q-16 52 -75 52q-58 0 -74 -52q-5 -14 -7 -32.5t-2 -50.5t2 -50.5t7 -32.5q17 -52 74 -52z" />
    <glyph glyph-name="ydieresis" unicode="&#xff;" horiz-adv-x="507" 
d="M93 -180q-10 0 -10 10v98q0 10 10 10h21q26 0 41.5 11.5t24.5 38.5l13 36l-180 450q-3 10 8 10h128q9 0 12 -10l97 -280h2l90 280q3 10 12 10h124q11 0 8 -10l-196 -515q-15 -40 -31.5 -67t-36.5 -43t-45 -22.5t-58 -6.5h-34zM309 561q-10 0 -10 10v99q0 10 10 10h93
q10 0 10 -10v-99q0 -10 -10 -10h-93zM109 561q-10 0 -10 10v99q0 10 10 10h92q10 0 10 -10v-99q0 -10 -10 -10h-92z" />
    <glyph glyph-name="dotlessi" unicode="&#x131;" horiz-adv-x="266" 
d="M73 0q-10 0 -10 10v464q0 10 10 10h120q10 0 10 -10v-464q0 -10 -10 -10h-120z" />
    <glyph glyph-name="Lslash" unicode="&#x141;" horiz-adv-x="550" 
d="M75 0q-10 0 -10 10v242l-46 -23q-10 -5 -10 6v94q0 9 10 14l46 23v304q0 10 10 10h127q10 0 10 -10v-236l127 65q10 5 10 -6v-94q0 -9 -10 -14l-127 -65v-183q0 -6 6 -6h300q10 0 10 -10v-111q0 -10 -10 -10h-443z" />
    <glyph glyph-name="lslash" unicode="&#x142;" horiz-adv-x="305" 
d="M201 330v-171q0 -25 10 -35.5t32 -10.5h21q10 0 10 -10v-99q0 -10 -10 -10h-53q-81 0 -115.5 36.5t-34.5 117.5v118l-32 -16q-10 -5 -10 6v89q0 10 10 15l32 16v294q0 10 10 10h120q10 0 10 -10v-230l63 32q10 5 10 -6v-89q0 -10 -10 -15z" />
    <glyph glyph-name="OE" unicode="&#x152;" horiz-adv-x="932" 
d="M442 0q-10 0 -10 10v22h-2q-20 -18 -51.5 -30.5t-76.5 -12.5q-88 0 -149 41t-87 123q-5 17 -9 34t-6 38t-3 48.5t-1 66.5t1 66.5t3 48.5t6 38t9 34q26 82 87 123t149 41q45 0 76.5 -12.5t51.5 -30.5h2v22q0 10 10 10h436q10 0 10 -10v-107q0 -10 -10 -10h-293q-6 0 -6 -6
v-135q0 -6 6 -6h244q10 0 10 -10v-106q0 -10 -10 -10h-244q-6 0 -6 -6v-141q0 -6 6 -6h293q10 0 10 -10v-107q0 -10 -10 -10h-436zM314 119q42 0 69 20t38 55q3 9 5 20.5t3.5 28t2 40.5t0.5 57t-0.5 57t-2 40.5t-3.5 28t-5 20.5q-11 35 -38 55t-69 20t-69 -20t-38 -55
q-3 -9 -5 -20.5t-3.5 -28t-2 -40.5t-0.5 -57t0.5 -57t2 -40.5t3.5 -28t5 -20.5q11 -35 38 -55t69 -20z" />
    <glyph glyph-name="oe" unicode="&#x153;" horiz-adv-x="836" 
d="M579 -11q-101 0 -157 59h-2q-32 -32 -70.5 -45.5t-84.5 -13.5q-77 0 -133 35t-77 102q-8 26 -12 53t-4 63t4 63.5t12 53.5q21 66 77 101t133 35q45 0 84 -12.5t70 -43.5h2q26 29 66 42.5t85 13.5q81 0 134.5 -36t74.5 -100q4 -12 6.5 -25.5t4.5 -30.5t3 -39.5t1 -53.5
q0 -10 -10 -10h-293q-6 0 -6 -6q1 -8 2 -14.5t3 -12.5q11 -32 37 -48t64 -16q36 0 63 11.5t47 31.5q9 6 15 0l66 -62q8 -6 0 -14q-35 -37 -87 -59t-118 -22zM652 293q6 0 6 6q0 23 -5 36q-8 25 -29 39t-51 14t-51.5 -14t-29.5 -39q-2 -8 -3.5 -16.5t-1.5 -19.5q0 -6 6 -6
h159zM265 107q58 0 75 53q5 16 7 33.5t2 48.5t-2 48.5t-7 34.5q-17 52 -75 52t-75 -52q-5 -17 -7 -34.5t-2 -48.5t2 -48.5t7 -33.5q17 -53 75 -53z" />
    <glyph glyph-name="Scaron" unicode="&#x160;" horiz-adv-x="595" 
d="M294 -11q-40 0 -78.5 7.5t-72.5 20t-62.5 29.5t-48.5 36q-8 8 -1 17l76 87q6 8 15 1q34 -27 79 -48.5t99 -21.5t82.5 22.5t28.5 58.5q0 30 -22 49t-83 27l-36 5q-104 14 -159.5 63.5t-55.5 140.5q0 47 17 85.5t48.5 65.5t76 42t99.5 15q68 0 128 -19t103 -52q9 -6 2 -15
l-61 -91q-6 -8 -14 -3q-39 26 -77.5 39t-80.5 13q-45 0 -68 -21t-23 -53q0 -29 23.5 -48t82.5 -27l36 -5q106 -14 160 -63.5t54 -142.5q0 -46 -17 -85.5t-50.5 -68t-83.5 -44.5t-116 -16zM262 744q-12 0 -19 10l-103 130q-3 4 -2 7t6 3h80q8 0 12 -2t10 -8l52 -54h2l53 54
q6 6 10 8t12 2h80q5 0 6 -3t-2 -7l-104 -130q-7 -10 -18 -10h-75z" />
    <glyph glyph-name="scaron" unicode="&#x161;" horiz-adv-x="505" 
d="M214 547q-11 0 -18 10l-104 131q-3 4 -1.5 7t6.5 3h79q8 0 12 -2t10 -8l53 -54h2l52 54q6 6 10.5 8t11.5 2h80q5 0 6 -3t-2 -7l-103 -131q-7 -10 -19 -10h-75zM253 -11q-76 0 -130.5 22.5t-89.5 52.5q-7 7 0 14l65 73q6 6 14 0q32 -25 71 -39t77 -14t56.5 13t18.5 33
q0 17 -13.5 27.5t-55.5 14.5l-54 6q-77 8 -117.5 45t-40.5 103q0 72 52 113.5t147 41.5q62 0 112 -17t84 -43q7 -7 1 -15l-56 -69q-6 -7 -14 -2q-25 16 -59 27.5t-72 11.5q-31 0 -46 -11t-15 -29q0 -17 13 -26.5t54 -13.5l53 -6q86 -8 123.5 -47t37.5 -100
q-1 -75 -56.5 -120.5t-159.5 -45.5z" />
    <glyph glyph-name="Ydieresis" unicode="&#x178;" horiz-adv-x="568" 
d="M220 0q-10 0 -10 10v261l-201 399q-4 10 7 10h130q11 0 15 -10l123 -248h3l123 248q4 10 15 10h126q5 0 7 -3t0 -7l-201 -399v-261q0 -10 -10 -10h-127zM340 760q-10 0 -10 10v98q0 10 10 10h90q10 0 10 -10v-98q0 -10 -10 -10h-90zM137 760q-10 0 -10 10v98q0 10 10 10
h90q10 0 10 -10v-98q0 -10 -10 -10h-90z" />
    <glyph glyph-name="Zcaron" unicode="&#x17d;" horiz-adv-x="546" 
d="M236 744q-12 0 -19 10l-103 130q-3 4 -2 7t6 3h80q8 0 12 -2t10 -8l52 -54h2l53 54q6 6 10 8t12 2h80q5 0 6 -3t-2 -7l-104 -130q-7 -10 -18 -10h-75zM50 0q-10 0 -10 10v110q0 5 3 10l293 417v2h-275q-10 0 -10 10v111q0 10 10 10h435q10 0 10 -10v-110q0 -6 -3 -10
l-294 -417v-2h287q10 0 10 -10v-111q0 -10 -10 -10h-446z" />
    <glyph glyph-name="zcaron" unicode="&#x17e;" horiz-adv-x="490" 
d="M211 547q-11 0 -18 10l-104 131q-3 4 -1.5 7t6.5 3h79q8 0 12 -2t10 -8l53 -54h2l52 54q6 6 10.5 8t11.5 2h80q5 0 6 -3t-2 -7l-103 -131q-7 -10 -19 -10h-75zM56 0q-10 0 -10 10v90q0 5 3 10l230 257v2h-210q-10 0 -10 10v95q0 10 10 10h365q10 0 10 -10v-95
q0 -6 -3 -10l-228 -252v-2h221q10 0 10 -10v-95q0 -10 -10 -10h-378z" />
    <glyph glyph-name="florin" unicode="&#x192;" 
d="M355 313l-49 -322q-8 -47 -22 -80t-36.5 -53t-54.5 -29t-75 -9h-32q-10 0 -10 10v97q0 10 10 10h19q31 0 46 11t20 46l48 319h-61q-10 0 -10 10v84q0 10 10 10h77l15 95q14 90 57.5 129t128.5 39h34q10 0 10 -10v-97q0 -10 -10 -10h-21q-29 0 -44 -13t-20 -42l-14 -91h78
q10 0 10 -10v-84q0 -10 -10 -10h-94z" />
    <glyph glyph-name="circumflex" unicode="&#x2c6;" horiz-adv-x="454" 
d="M302 550q-12 0 -22 10l-52 54h-2l-53 -54q-6 -6 -10 -8t-12 -2h-79q-5 0 -6.5 3t1.5 7l104 131q7 10 18 10h75q12 0 19 -10l103 -131q3 -4 2 -7t-6 -3h-80z" />
    <glyph glyph-name="caron" unicode="&#x2c7;" horiz-adv-x="454" 
d="M189 547q-11 0 -18 10l-104 131q-3 4 -1.5 7t6.5 3h79q8 0 12 -2t10 -8l53 -54h2l52 54q6 6 10.5 8t11.5 2h80q5 0 6 -3t-2 -7l-103 -131q-7 -10 -19 -10h-75z" />
    <glyph glyph-name="breve" unicode="&#x2d8;" horiz-adv-x="454" 
d="M227 546q-68 0 -109.5 37t-43.5 94q0 10 10 10h58q10 0 13 -10q16 -43 72 -43t71 43q4 10 14 10h57q11 0 11 -10q-2 -28 -13.5 -52t-31.5 -41.5t-47.5 -27.5t-60.5 -10z" />
    <glyph glyph-name="dotaccent" unicode="&#x2d9;" horiz-adv-x="454" 
d="M169 561q-10 0 -10 10v99q0 10 10 10h115q10 0 10 -10v-99q0 -10 -10 -10h-115z" />
    <glyph glyph-name="ring" unicode="&#x2da;" horiz-adv-x="454" 
d="M227 524q-46 0 -76.5 30t-30.5 76q0 47 30.5 77t76.5 30t76.5 -30t30.5 -77q0 -46 -30.5 -76t-76.5 -30zM227 582q20 0 33 14t13 34q0 21 -13 35t-33 14t-33.5 -14t-13.5 -35q0 -20 13.5 -34t33.5 -14z" />
    <glyph glyph-name="ogonek" unicode="&#x2db;" horiz-adv-x="454" 
d="M218 -191q-47 0 -75 24.5t-28 67.5q0 32 15.5 55.5t44.5 43.5q7 5 12 7.5t13 2.5h104q5 0 5.5 -4t-4.5 -6q-48 -25 -66 -42.5t-18 -32.5q0 -21 21 -21q7 0 12 2t13 6q8 5 13 -4l31 -59q4 -7 -4 -14q-20 -14 -43 -20t-46 -6z" />
    <glyph glyph-name="tilde" unicode="&#x2dc;" horiz-adv-x="454" 
d="M289 552q-23 0 -40 6.5t-35 15.5q-14 8 -27.5 13t-30.5 5q-22 0 -38 -9t-33 -23q-9 -7 -9 3v72q0 11 8 20q16 16 35 26t42 10t40 -6.5t35 -15.5q15 -8 28 -13t30 -5q22 0 38 9t33 23q4 3 7 2t3 -5v-72q0 -11 -9 -20q-15 -16 -34.5 -26t-42.5 -10z" />
    <glyph glyph-name="hungarumlaut" unicode="&#x2dd;" horiz-adv-x="454" 
d="M230 549q-11 0 -6 10l67 131q5 10 16 10h97q5 0 6 -3t-1 -7l-80 -131q-6 -10 -17 -10h-82zM59 549q-11 0 -6 10l67 131q5 10 16 10h97q5 0 6 -3t-1 -7l-80 -131q-7 -10 -18 -10h-81z" />
    <glyph glyph-name="pi" unicode="&#x3c0;" horiz-adv-x="598" 
d="M508 -6q-78 0 -112 36.5t-34 116.5v210q0 6 -6 6h-118q-6 0 -6 -6v-347q0 -10 -10 -10h-119q-10 0 -10 10v347q0 6 -6 6h-44q-10 0 -10 10v101q0 10 10 10h507q10 0 10 -10v-101q0 -10 -10 -10h-43q-6 0 -6 -6v-203q0 -23 7.5 -32t25.5 -9h5q10 0 10 -10v-99
q0 -10 -10 -10h-31z" />
    <glyph glyph-name="aComma" unicode="&#x60c;" horiz-adv-x="251" 
d="M191 10q0 -10 -10 -10h-111q-10 0 -10 10v119q0 12 8 21l97 90q8 8 16 8q10 0 10 -11v-227z" />
    <glyph glyph-name="aTahabove" unicode="&#x615;" horiz-adv-x="0" 
d="M-108 553q10 0 10 11v152q0 7 8 7h43q8 0 8 -7v-71q16 6 33 10t34 4q45 0 62.5 -23t17.5 -58q0 -42 -13 -58.5t-41 -16.5h-174q-7 0 -7 7v36q0 7 7 7h12zM15 609q-13 0 -26.5 -4t-27.5 -9v-43h67q14 0 17.5 5.5t3.5 19.5q0 31 -34 31z" />
    <glyph glyph-name="aSemicolon" unicode="&#x61b;" horiz-adv-x="259" 
d="M60 130q0 10 10 10h119q10 0 10 -10v-120q0 -10 -10 -10h-119q-10 0 -10 10v120zM192 243q0 -10 -10 -10h-111q-10 0 -10 10v119q0 12 8 21l97 90q8 8 16 8q10 0 10 -11v-227z" />
    <glyph glyph-name="aQuestion" unicode="&#x61f;" horiz-adv-x="496" 
d="M189 184q-10 0 -10 10v11q0 21 -5 34t-19 31l-52 64q-16 19 -28.5 36.5t-21 34.5t-13 35t-4.5 40q0 38 14.5 71.5t41.5 58t65 39t85 14.5q44 0 80 -12.5t62.5 -35.5t43.5 -55t22 -71q2 -9 -8 -11l-108 -16q-9 -2 -11 8q-14 72 -78 72q-32 0 -51.5 -18.5t-19.5 -50.5
q0 -21 11 -40t38 -52l57 -70q17 -20 24.5 -39t7.5 -48v-30q0 -10 -10 -10h-113zM314 10q0 -10 -10 -10h-118q-10 0 -10 10v113q0 10 10 10h118q10 0 10 -10v-113z" />
    <glyph glyph-name="aKashida" unicode="&#x640;" horiz-adv-x="129" 
d="M0 0q-20 0 -28.5 11.5t-8.5 44.5q0 35 8 50t29 15h129q20 0 30 -14.5t10 -47.5q0 -37 -9.5 -48t-30.5 -11h-129z" />
    <glyph glyph-name="aHeh" unicode="&#x647;" horiz-adv-x="532" 
d="M263 -7q-47 0 -87.5 11t-70 36.5t-46.5 67.5t-17 103q0 66 18 109.5t48.5 69.5t70.5 37t84 11t84 -11t70.5 -37t48.5 -69.5t18 -109.5q0 -61 -17 -103t-46.5 -67.5t-70 -36.5t-87.5 -11zM263 317q-82 0 -82 -101q0 -57 21 -79.5t61 -22.5q42 0 62 22.5t20 79.5
q0 101 -82 101z" />
    <glyph glyph-name="aFathatan" unicode="&#x64b;" horiz-adv-x="0" 
d="M-125 819q-10 0 -10 10v21q0 10 10 10h254q10 0 10 -10v-21q0 -10 -10 -10h-254zM-125 750q-10 0 -10 10v20q0 10 10 10h254q10 0 10 -10v-20q0 -10 -10 -10h-254z" />
    <glyph glyph-name="aDammatan" unicode="&#x64c;" horiz-adv-x="0" 
d="M-145 870q-10 0 -10 10v18q0 10 10 10h9q33 0 55.5 -21.5t22.5 -68.5q0 -24 14 -29.5t42 -5.5q38 0 55 13t22 24h-29q-35 0 -55 18.5t-20 50.5t22 54.5t54 22.5t54.5 -22t22.5 -71q0 -37 -9.5 -61.5t-26.5 -39.5t-40 -21t-50 -6q-20 0 -38 2.5t-31 10t-20.5 22t-7.5 38.5
q0 27 -9 39.5t-24 12.5h-13zM85 856v16q0 26 -10.5 40t-26.5 14q-19 0 -27.5 -12t-8.5 -26q0 -9 4.5 -15t10.5 -9.5t13 -5t12 -1.5z" />
    <glyph glyph-name="aKasratan" unicode="&#x64d;" horiz-adv-x="0" 
d="M-123 -134q-10 0 -10 10v21q0 10 10 10h254q10 0 10 -10v-21q0 -10 -10 -10h-254zM-123 -203q-10 0 -10 10v20q0 10 10 10h254q10 0 10 -10v-20q0 -10 -10 -10h-254z" />
    <glyph glyph-name="aFatha" unicode="&#x64e;" horiz-adv-x="0" 
d="M-126 750q-10 0 -10 10v20q0 10 10 10h254q10 0 10 -10v-20q0 -10 -10 -10h-254z" />
    <glyph glyph-name="aDamma" unicode="&#x64f;" horiz-adv-x="0" 
d="M38 856v16q0 26 -10.5 40t-26.5 14q-19 0 -27.5 -12t-8.5 -26q0 -9 4.5 -15t10.5 -9.5t13 -5t12 -1.5zM-49 782q19 0 33 3.5t23 9t14 12t7 12.5h-28q-35 0 -55 18.5t-20 50.5t22 54.5t54 22.5t54 -22t22 -71q0 -37 -9.5 -61.5t-26 -39.5t-40 -21t-50.5 -6h-29
q-10 0 -10 10v18q0 10 10 10h29z" />
    <glyph glyph-name="aKasra" unicode="&#x650;" horiz-adv-x="0" 
d="M-123 -138q-10 0 -10 10v20q0 10 10 10h254q10 0 10 -10v-20q0 -10 -10 -10h-254z" />
    <glyph glyph-name="aShadda" unicode="&#x651;" horiz-adv-x="0" 
d="M-128 901q0 10 10 10h22q10 0 10 -10v-74q0 -40 33 -40t33 36v78q0 10 10 10h22q10 0 10 -10v-78q0 -36 33 -36t33 40v74q0 10 10 10h22q10 0 10 -10v-71q0 -35 -18 -59t-57 -24q-37 0 -56 22q-19 -22 -53 -22q-39 0 -56.5 24t-17.5 59v71z" />
    <glyph glyph-name="aSukun" unicode="&#x652;" horiz-adv-x="0" 
d="M-83 830q0 34 23.5 58.5t58.5 24.5q34 0 58.5 -24.5t24.5 -58.5q0 -35 -24.5 -58.5t-58.5 -23.5q-35 0 -58.5 23.5t-23.5 58.5zM-44 831q0 -18 13 -31t31 -13t31 13t13 31t-13 31t-31 13t-31 -13t-13 -31z" />
    <glyph glyph-name="aMadda" unicode="&#x653;" horiz-adv-x="0" 
d="M-189 768q10 40 32.5 60t54.5 20q23 0 47 -8.5t48 -18.5t46.5 -18.5t43.5 -8.5q15 0 20.5 7.5t5.5 26.5q0 10 10 10h53q10 0 10 -10q0 -48 -20 -76.5t-65 -28.5q-28 0 -54 8t-48.5 17l-42.5 17t-36 8q-10 0 -18.5 -5.5t-14.5 -22.5q-3 -10 -13 -7l-52 17q-10 3 -7 13z
" />
    <glyph glyph-name="aHamzaabove" unicode="&#x654;" horiz-adv-x="0" 
d="M-78 789q-6 11 -10 24t-4 29q0 18 6.5 36t19.5 32.5t33.5 23t49.5 8.5q32 0 55.5 -11.5t36.5 -28.5q3 -5 -1 -9l-30 -31q-5 -6 -10 -1q-21 23 -47 23q-19 0 -31 -12t-12 -32q0 -18 9.5 -31t20.5 -20h100q6 0 6 -7v-45q0 -7 -6 -7h-223q-6 0 -6 7v45q0 7 6 7h37z" />
    <glyph glyph-name="aHamzabelow" unicode="&#x655;" horiz-adv-x="0" 
d="M-78 -223q-6 11 -10 24t-4 29q0 18 6.5 36t19.5 32.5t33.5 23t49.5 8.5q32 0 55.5 -11.5t36.5 -28.5q3 -5 -1 -9l-30 -31q-5 -6 -10 -1q-21 23 -47 23q-19 0 -31 -12t-12 -32q0 -18 9.5 -31t20.5 -20h100q6 0 6 -7v-45q0 -7 -6 -7h-223q-6 0 -6 7v45q0 7 6 7h37z" />
    <glyph glyph-name="aAlifbelow" unicode="&#x656;" horiz-adv-x="0" 
d="M22 -238q0 -10 -10 -10h-24q-10 0 -10 10v124q0 10 10 10h24q10 0 10 -10v-124z" />
    <glyph glyph-name="aNasalnun" unicode="&#x658;" horiz-adv-x="0" 
d="M-90 891q0 10 10 10h22q10 0 10 -10v-53q0 -23 12 -37.5t36 -14.5t35.5 14t11.5 38v53q0 10 10 10h22q10 0 10 -10v-48q0 -42 -20.5 -69t-68.5 -27t-69 27t-21 69v48z" />
    <glyph glyph-name="aZero" unicode="&#x660;" horiz-adv-x="532" 
d="M303 112q-18 -18 -34 -20t-38 20l-59 60q-20 20 -20 35.5t20 35.5l59 59q17 17 31.5 20.5t34.5 -16.5l65 -63q19 -19 19.5 -35.5t-19.5 -36.5z" />
    <glyph glyph-name="aOne" unicode="&#x661;" horiz-adv-x="532" 
d="M337 10q0 -10 -10 -10h-122q-10 0 -10 10v585q0 10 10 10h122q10 0 10 -10v-585z" />
    <glyph glyph-name="aTwo" unicode="&#x662;" horiz-adv-x="532" 
d="M105 478q0 63 28.5 95t91.5 32h240q10 0 10 -10v-101q0 -10 -10 -10h-158q-37 0 -49 -16t-12 -50v-408q0 -10 -10 -10h-121q-10 0 -10 10v468z" />
    <glyph glyph-name="aThree" unicode="&#x663;" horiz-adv-x="532" 
d="M167 435h54v113q0 10 10 10h90q10 0 10 -10v-112q28 2 39.5 12.5t11.5 36.5v110q0 10 10 10h116q10 0 10 -10v-131q0 -83 -44.5 -115.5t-131.5 -32.5h-175v-306q0 -10 -10 -10h-121q-10 0 -10 10v585q0 10 10 10h121q10 0 10 -10v-160z" />
    <glyph glyph-name="aFour" unicode="&#x664;" horiz-adv-x="532" 
d="M456 118q10 0 10 -10v-98q0 -10 -10 -10h-195q-39 0 -74.5 9t-62.5 28.5t-43 49t-16 71.5q0 18 3.5 38.5t13.5 41.5t28 40.5t47 34.5q-33 24 -47.5 59t-14.5 67q0 82 52 124t136 42h133q10 0 10 -10v-98q0 -10 -10 -10h-99q-35 0 -53.5 -13.5t-18.5 -48.5t20 -48t52 -13
h98q10 0 10 -10v-98q0 -10 -10 -10h-123q-34 0 -56.5 -16.5t-22.5 -51.5q0 -36 25 -48t58 -12h160z" />
    <glyph glyph-name="aFive" unicode="&#x665;" horiz-adv-x="532" 
d="M265 0q-41 0 -79 7t-67.5 28.5t-47.5 61t-18 105.5v145q0 73 16 123t44.5 80.5t68 43.5t86.5 13t86 -12.5t67.5 -42.5t44 -80t15.5 -125v-140q0 -64 -17.5 -104t-47 -63t-68.5 -31.5t-83 -8.5zM267 122q40 0 56.5 21t16.5 68v128q0 81 -17 115.5t-56 34.5
q-38 0 -55.5 -33t-17.5 -116v-129q0 -53 18.5 -71t54.5 -18z" />
    <glyph glyph-name="aSix" unicode="&#x666;" horiz-adv-x="532" 
d="M83 484q-10 0 -10 10v101q0 10 10 10h232q63 0 91.5 -32t28.5 -95v-468q0 -10 -10 -10h-121q-10 0 -10 10v408q0 34 -12 50t-49 16h-150z" />
    <glyph glyph-name="aSeven" unicode="&#x667;" horiz-adv-x="532" 
d="M383 604q3 10 12 7l115 -29q11 -3 9 -11l-179 -556q-2 -7 -11 -11t-20 -6t-23 -2.5t-21 -0.5q-8 0 -20 0.5t-23.5 3t-20.5 6.5t-11 10l-177 556q-2 8 9 11l115 29q9 3 12 -7l116 -423z" />
    <glyph glyph-name="aEight" unicode="&#x668;" horiz-adv-x="532" 
d="M149 0q-3 -10 -12 -7l-115 29q-11 3 -9 11l178 556q2 7 11 11t20.5 6t23.5 2.5t21 0.5q8 0 20 -0.5t23.5 -3t20.5 -6.5t11 -10l177 -556q2 -8 -9 -11l-115 -29q-9 -3 -12 7l-116 423z" />
    <glyph glyph-name="aNine" unicode="&#x669;" horiz-adv-x="532" 
d="M262 228q-41 0 -78 8.5t-65.5 29.5t-45 57t-16.5 90q0 55 18.5 92t47.5 59t65.5 31.5t72.5 9.5q40 0 75.5 -9t62.5 -28t42.5 -49t15.5 -72v-437q0 -10 -10 -10h-122q-10 0 -10 10v218h-53zM315 350v72q0 26 -13 44t-44 18q-26 0 -44 -17t-18 -52q0 -33 17.5 -49t46.5 -16
h55z" />
    <glyph glyph-name="aPercent" unicode="&#x66a;" horiz-adv-x="680" 
d="M469 620q2 4 5 7t8 3h109q10 0 7 -10l-386 -622q-2 -4 -5 -7t-8 -3h-109q-5 0 -7 3t0 7zM194 431q-16 -17 -30 -18.5t-34 18.5l-52 53q-17 17 -17.5 31t17.5 32l52 52q15 16 28.5 18.5t30.5 -14.5l57 -56q17 -17 17.5 -31.5t-17.5 -32.5zM535 19q-16 -17 -30 -18.5
t-34 18.5l-52 53q-17 17 -17.5 31t17.5 32l52 52q15 16 28.5 18.5t30.5 -14.5l57 -56q17 -17 17.5 -31.5t-17.5 -32.5z" />
    <glyph glyph-name="aDecimal" unicode="&#x66b;" horiz-adv-x="242" 
d="M57 133q0 10 10 10h111q10 0 10 -10v-119q0 -13 -8 -21l-97 -91q-8 -7 -16 -7q-10 0 -10 11v227z" />
    <glyph glyph-name="aThousands" unicode="&#x66c;" horiz-adv-x="230" 
d="M57 267q0 10 10 10h111q10 0 10 -10v-119q0 -13 -8 -21l-97 -91q-8 -7 -16 -7q-10 0 -10 11v227z" />
    <glyph glyph-name="aStar" unicode="&#x66d;" horiz-adv-x="343" 
d="M110 488q-7 -7 -14 -3l-9 6q-8 5 -3 14l38 81l-83 52q-6 5 -5 12l4 11q2 8 10 6l95 -12l20 95q2 10 10 10h12q8 0 10 -10l19 -95l95 12q8 2 10 -6l4 -11q1 -7 -5 -12l-83 -52l38 -81q5 -9 -3 -14l-9 -6q-6 -4 -14 3l-69 59z" />
    <glyph glyph-name="aAlifabove" unicode="&#x670;" horiz-adv-x="0" 
d="M22 760q0 -10 -10 -10h-24q-10 0 -10 10v124q0 10 10 10h24q10 0 10 -10v-124z" />
    <glyph glyph-name="aHehYeh" unicode="&#x6c0;" horiz-adv-x="532" 
d="M263 -7q-47 0 -87.5 11t-70 36.5t-46.5 67.5t-17 103q0 66 18 109.5t48.5 69.5t70.5 37t84 11t84 -11t70.5 -37t48.5 -69.5t18 -109.5q0 -61 -17 -103t-46.5 -67.5t-70 -36.5t-87.5 -11zM263 317q-82 0 -82 -101q0 -57 21 -79.5t61 -22.5q42 0 62 22.5t20 79.5
q0 101 -82 101zM186 574q-6 11 -10 24t-4 29q0 18 6.5 36t19.5 32.5t33.5 23t49.5 8.5q32 0 55.5 -11.5t36.5 -28.5q3 -5 -1 -9l-30 -31q-5 -6 -10 -1q-21 23 -47 23q-19 0 -31 -12t-12 -32q0 -18 9.5 -31t20.5 -20h100q6 0 6 -7v-45q0 -7 -6 -7h-223q-6 0 -6 7v45q0 7 6 7
h37z" />
    <glyph glyph-name="aHehGoalHamzaabove" unicode="&#x6c2;" horiz-adv-x="532" 
d="M263 -7q-47 0 -87.5 11t-70 36.5t-46.5 67.5t-17 103q0 66 18 109.5t48.5 69.5t70.5 37t84 11t84 -11t70.5 -37t48.5 -69.5t18 -109.5q0 -61 -17 -103t-46.5 -67.5t-70 -36.5t-87.5 -11zM263 317q-82 0 -82 -101q0 -57 21 -79.5t61 -22.5q42 0 62 22.5t20 79.5
q0 101 -82 101zM186 574q-6 11 -10 24t-4 29q0 18 6.5 36t19.5 32.5t33.5 23t49.5 8.5q32 0 55.5 -11.5t36.5 -28.5q3 -5 -1 -9l-30 -31q-5 -6 -10 -1q-21 23 -47 23q-19 0 -31 -12t-12 -32q0 -18 9.5 -31t20.5 -20h100q6 0 6 -7v-45q0 -7 -6 -7h-223q-6 0 -6 7v45q0 7 6 7
h37z" />
    <glyph glyph-name="aTehMarbutaGoal" unicode="&#x6c3;" horiz-adv-x="532" 
d="M263 -7q-47 0 -87.5 11t-70 36.5t-46.5 67.5t-17 103q0 66 18 109.5t48.5 69.5t70.5 37t84 11t84 -11t70.5 -37t48.5 -69.5t18 -109.5q0 -61 -17 -103t-46.5 -67.5t-70 -36.5t-87.5 -11zM263 317q-82 0 -82 -101q0 -57 21 -79.5t61 -22.5q42 0 62 22.5t20 79.5
q0 101 -82 101zM139 522q-10 0 -10 10v98q0 10 10 10h100q10 0 10 -10v-98q0 -10 -10 -10h-100zM293 522q-10 0 -10 10v98q0 10 10 10h101q10 0 10 -10v-98q0 -10 -10 -10h-101z" />
    <glyph glyph-name="aPeriodUrdu" unicode="&#x6d4;" horiz-adv-x="325" 
d="M279 121q10 0 10 -10v-101q0 -10 -10 -10h-90q-46 0 -88.5 13.5t-74.5 39.5q-6 6 -1 14l49 86q5 8 13 3q28 -18 55 -26.5t71 -8.5h66z" />
    <glyph glyph-name="aAe" unicode="&#x6d5;" horiz-adv-x="532" 
d="M263 -7q-47 0 -87.5 11t-70 36.5t-46.5 67.5t-17 103q0 66 18 109.5t48.5 69.5t70.5 37t84 11t84 -11t70.5 -37t48.5 -69.5t18 -109.5q0 -61 -17 -103t-46.5 -67.5t-70 -36.5t-87.5 -11zM263 317q-82 0 -82 -101q0 -57 21 -79.5t61 -22.5q42 0 62 22.5t20 79.5
q0 101 -82 101z" />
    <glyph glyph-name="aZeroFarsi" unicode="&#x6f0;" horiz-adv-x="532" 
d="M303 112q-18 -18 -34 -20t-38 20l-59 60q-20 20 -20 35.5t20 35.5l59 59q17 17 31.5 20.5t34.5 -16.5l65 -63q19 -19 19.5 -35.5t-19.5 -36.5z" />
    <glyph glyph-name="aOneFarsi" unicode="&#x6f1;" horiz-adv-x="532" 
d="M337 10q0 -10 -10 -10h-122q-10 0 -10 10v585q0 10 10 10h122q10 0 10 -10v-585z" />
    <glyph glyph-name="aTwoFarsi" unicode="&#x6f2;" horiz-adv-x="532" 
d="M105 478q0 63 28.5 95t91.5 32h240q10 0 10 -10v-101q0 -10 -10 -10h-158q-37 0 -49 -16t-12 -50v-408q0 -10 -10 -10h-121q-10 0 -10 10v468z" />
    <glyph glyph-name="aThreeFarsi" unicode="&#x6f3;" horiz-adv-x="532" 
d="M167 435h54v113q0 10 10 10h90q10 0 10 -10v-112q28 2 39.5 12.5t11.5 36.5v110q0 10 10 10h116q10 0 10 -10v-131q0 -83 -44.5 -115.5t-131.5 -32.5h-175v-306q0 -10 -10 -10h-121q-10 0 -10 10v585q0 10 10 10h121q10 0 10 -10v-160z" />
    <glyph glyph-name="aFourFarsi" unicode="&#x6f4;" horiz-adv-x="532" 
d="M343 606q10 0 10 -10v-57q0 -10 -10 -10q-28 0 -36.5 -11t-8.5 -34v-35q26 0 43 2t27 8t14 17t4 29v17q0 8 9 9t17 1h96q10 0 10 -10v-27q0 -77 -31.5 -114.5t-103.5 -39.5q-16 -1 -32 -1h-32h-157v-330q0 -8 -14.5 -9t-25.5 -1h-91q-10 0 -10 10v585q0 10 10 10h121
q10 0 10 -10v-146h47v49q0 57 27.5 82.5t83.5 25.5h23z" />
    <glyph glyph-name="aFiveFarsi" unicode="&#x6f5;" horiz-adv-x="532" 
d="M348 235q0 53 -3.5 100t-12.5 81.5t-25 54.5t-41 20q-46 0 -64.5 -58.5t-18.5 -173.5q0 -65 8.5 -101t34.5 -36q8 0 14 4t10.5 9t8.5 9t8 4t7.5 -4t8 -9t10.5 -9t15 -4q20 0 30 26t10 87zM46 218q0 39 1.5 82.5t8 87t20 83t38 70t61.5 48.5t91 18q75 0 118.5 -32t66 -83
t29 -115t6.5 -128q0 -21 -1 -48t-5 -54.5t-12 -54.5t-22.5 -47.5t-36 -33.5t-52.5 -13q-26 0 -46.5 7.5t-41.5 25.5q-21 -18 -40.5 -25t-43.5 -7q-27 0 -52.5 12.5t-44.5 38.5t-30.5 67.5t-11.5 100.5z" />
    <glyph glyph-name="aSixFarsi" unicode="&#x6f6;" horiz-adv-x="532" 
d="M158 -24q-5 -8 -14 -3l-94 70q-9 8 -3 14l176 255q-41 23 -57 56.5t-16 67.5q0 42 14.5 74t39.5 53t59 31.5t72 10.5h113q10 0 10 -10v-101q0 -10 -10 -10h-78q-40 0 -60.5 -15t-20.5 -53q0 -19 7 -32t18.5 -20.5t25.5 -11t29 -3.5h78q10 0 10 -10v-101q0 -10 -10 -10
h-59q-33 0 -47.5 -3t-26.5 -20z" />
    <glyph glyph-name="aSevenFarsi" unicode="&#x6f7;" horiz-adv-x="532" 
d="M383 604q3 10 12 7l115 -29q11 -3 9 -11l-179 -556q-2 -7 -11 -11t-20 -6t-23 -2.5t-21 -0.5q-8 0 -20 0.5t-23.5 3t-20.5 6.5t-11 10l-177 556q-2 8 9 11l115 29q9 3 12 -7l116 -423z" />
    </font>
</defs>
</svg>
